↑↓torrent.by
Поиск
Логин:  Регистрация
Пароль:

Загнанная в угол мышь мечтает о сыре / The cornered mouse dreams of cheese / Kyuso wa chizu no yume wo miru (2020) HDRip-AVC | L2

download Скачать торрент-файл   magnet Магнитная ссылка Размер: 1.46 GB Добавлен: 2024-04-22 11:00
Пиры будут получены из сети DHT
Последний сидер был замечен 2024-04-22 11:00
Информация о фильме Название: Загнанная в угол мышь мечтает о сыре Оригинальное название: The cornered mouse dreams of cheese / Kyuso wa chizu no yume wo miru / 窮鼠はチーズの夢を見る Год выхода: 2020 Жанр: мелодрама, драма, гей-тема Режиссер: Исао Юкисада / Isao Yukisada В ролях: Тадаёши Окура (Кёичи), Рё Нарита (Ватару), Норико Кидзима, Шиори Ёшида, Мию Сакихи, Хонами Сато О фильме: Кёичи работает менеджером среднего звена в рекламном агентстве. Он изменяет своей жене с другими женщинами. Супруга нанимает частного детектива расследовать его похождения. И этим детективом оказывается приятель Кёичи по колледжу Ватару. Ватару - гей и в колледже был влюблён в объект своего расследования. Агент предлагает скрыть улики похождений Кёичи в обмен на ночь любви. Страна: Япония Продолжительность: 02:10:42 Перевод: Любительский двухголосый закадровый Файл Качество: HDRip-AVC Кодек: MKV Видео: AVC; 784 x 328 (2,4:1); 23,976 кадра/сек; 1210 Кбит/сек Аудио 1: AC3; 48 КГц; 2 канала; 192 Кбит/сек; L2 (Русский, Странные миры) Аудио 2: AC3; 48 КГц; 2 канала; 192 Кбит/сек; Оригинал (Японский) Субтитры: нет Семпл
[+] MediaInfo: Общее Формат : Matroska Версия формата : Version 4 / Version 2 Размер файла : 1,46 Гбайт Продолжительность : 2 ч. 10 м. Общий поток : 1596 Кбит/сек Программа кодирования : mkvmerge v11.0.0 ('Alive') 32bit Библиотека кодирования : libebml v1.3.4 + libmatroska v1.4.5 Видео Идентификатор : 1 Формат : AVC Формат/Информация : Advanced Video Codec Профиль формата : High@L3 Настройки формата : CABAC / 7 Ref Frames Параметр CABAC формата : Да Параметр RefFrames формата : 7 кадров Идентификатор кодека : V_MPEG4/ISO/AVC Продолжительность : 2 ч. 10 м. Битрейт : 1210 Кбит/сек Ширина : 784 пикселя Высота : 328 пикселей Соотношение сторон : 2,40:1 Режим частоты кадров : Постоянный Частота кадров : 23,976 (24000/1001) кадра/сек Цветовое пространство : YUV Субдискретизация насыщенности : 4:2:0 Битовая глубина : 8 бит Тип развёртки : Прогрессивная Бит/(Пиксели*Кадры) : 0.196 Размер потока : 1,10 Гбайт (76%) Библиотека кодирования : x264 core 155 r2901 7d0ff22 Настройки программы : cabac=1 / ref=7 / deblock=1:0:0 / analyse=0x3:0x113 / me=umh / subme=9 / psy=1 / psy_rd=1.00:0.00 / mixed_ref=1 / me_range=24 / chroma_me=1 / trellis=1 / 8x8dct=1 / cqm=0 / deadzone=21,11 / fast_pskip=1 / chroma_qp_offset=-2 / threads=10 / lookahead_threads=1 / sliced_threads=0 / nr=0 / decimate=1 / interlaced=0 / bluray_compat=0 / constrained_intra=0 / bframes=7 / b_pyramid=2 / b_adapt=1 / b_bias=0 / direct=1 / weightb=1 / open_gop=0 / weightp=2 / keyint=240 / keyint_min=23 / scenecut=40 / intra_refresh=0 / rc_lookahead=40 / rc=2pass / mbtree=1 / bitrate=1210 / ratetol=1.0 / qcomp=0.60 / qpmin=0 / qpmax=69 / qpstep=4 / cplxblur=20.0 / qblur=0.5 / ip_ratio=1.40 / aq=1:1.00 Default : Да Forced : Нет Аудио #1 Идентификатор : 2 Формат : AC-3 Формат/Информация : Audio Coding 3 Идентификатор кодека : A_AC3 Продолжительность : 2 ч. 10 м. Вид битрейта : Постоянный Битрейт : 192 Кбит/сек Каналы : 2 канала Расположение каналов : Front: L R Частота : 48,0 КГц Частота кадров : 31,250 кадров/сек (1536 SPF) Битовая глубина : 16 бит Метод сжатия : С потерями Размер потока : 179 Мбайт (12%) Заголовок : DVO (Странные миры) Язык : Russian ServiceKind/Strin : Complete Main Default : Да Forced : Нет Аудио #2 Идентификатор : 3 Формат : AC-3 Формат/Информация : Audio Coding 3 Идентификатор кодека : A_AC3 Продолжительность : 2 ч. 10 м. Вид битрейта : Постоянный Битрейт : 192 Кбит/сек Каналы : 2 канала Расположение каналов : Front: L R Частота : 48,0 КГц Частота кадров : 31,250 кадров/сек (1536 SPF) Битовая глубина : 16 бит Метод сжатия : С потерями Размер потока : 180 Мбайт (12%) Заголовок : Original Язык : Japanese ServiceKind/Strin : Complete Main Default : Нет Forced : Нет
[+] Скриншоты

Всего файлов в раздаче: 1 
Загнанная в угол мышь.mkv1.46 GB

Кто качает (только для создателя раздачи и модераторов): Локальные пиры отсутствуют

Комментарии


Зарегистрируйтесь чтобы добавить комментарий
Торрент клиент
byTorrent - программа для загрузки торрент-файлов.

Скачать byTorrent.exe (1,5 МБ)

Скачать byTorrent.zip (0,6 МБ)

Поддержи torrent.by
российских рублей
(300 российских рублей это 4$)

Обратная связь rss

End game ©