↑↓torrent.by
Поиск
Логин:  Регистрация
Пароль:

Мятежная Луна, часть 1: Дитя огня / Rebel Moon: Part One - A Child of Fire (2023) WEB-DL-HEVC 2160p | 4K | SDR | D, P, A

download Скачать торрент-файл   magnet Магнитная ссылка Размер: 20.74 GB Добавлен: 2024-04-22 11:00
Пиры будут получены из сети DHT
Последний сидер был замечен сегодня в 08:19
Информация о фильме Название: Мятежная Луна, часть 1: Дитя огня Оригинальное название: Rebel Moon: Part One - A Child of Fire Год выхода: 2023 Жанр: фантастика, боевик, драма, приключения Режиссер: Зак Снайдер В ролях: София Бутелла, Эд Скрейн, Михил Хёйсман, Чарли Ханнэм, Стаз Нэйр, Пэ Ду-на, Джимон Хонсу, Рэй Фишер, Клеопатра Коулмэн, Фра Фи О фильме: В галактической империи Праматерь после убийства королевской семьи власть узурпировал коварный сенатор. На окраинах зарождается революция, поэтому среди планет курсирует боевой корабль под руководством безжалостного адмирала Нобла. Когда ищущие повстанцев прибывают на захолустную луну Велдт, чтобы пополнить запасы пищи, а также убивать и насиловать, они неожиданно наталкиваются на сопротивление — загадочная женщина по имени Кора, которую пару лет назад вытащил из обломков корабля местный фермер, оказывается беглянкой из военной элиты империи. Страна: США, Венгрия, Швеция, Дания, Великобритания Продолжительность: 02:15:58 Перевод: Дублированный (неофициальный), профессиональный многоголосый закадровый, авторский одноголосый Файл Кодек: H.265 Качество: WEB-DL 2160p Видео: HEVC, 3840x2160 (16:9), 24.000 fps, 16,6 Mb/s, 10 bit Аудио 1: AC3, 48.0 kHz, 6 ch, 640 kb/s | RUS (DUB, Red Head Sound) Аудио 2: E-AC3, 48.0 kHz, 6 ch, 768 kb/s | RUS (MVO, HDRezka Studio) Аудио 3: E-AC3, 48.0 kHz, 6 ch, 768 kb/s | RUS (MVO, NewStudio) Аудио 4: E-AC3, 48.0 kHz, 6 ch, 768 kb/s | RUS (MVO, LostFilm) Аудио 5: E-AC3, 48.0 kHz, 6 ch, 768 kb/s | RUS (MVO, TVShows) Аудио 6: E-AC3, 48.0 kHz, 6 ch, 768 kb/s | RUS (AVO, Ю. Сербин) Аудио 7: E-AC3 JOC, 48.0 kHz, 6 ch, 768 kb/s | ENG Субтитры: русские (forced, full), aнглийские (forced, full, SDH)
[+] MIGeneral Unique ID : 330921744624362527542355357304951179427 (0xF8F535B058D8C9E412736526E50C88A3) Complete name : Rebel Moon.Part One.A Child of Fire.(2023).WEB-DL 2160p.SDR.mkv Format : Matroska Format version : Version 4 File size : 20.7 GiB Duration : 2 h 15 min Overall bit rate : 21.8 Mb/s Encoded date : UTC 2024-04-21 17:12:33 Writing application : mkvmerge v83.0 ('Circle Of Friends') 64-bit Writing library : libebml v1.4.5 + libmatroska v1.7.1 Video ID : 1 Format : HEVC Format/Info : High Efficiency Video Coding Format profile : Main 10@L5@Main Codec ID : V_MPEGH/ISO/HEVC Duration : 2 h 15 min Bit rate : 16.6 Mb/s Width : 3 840 pixels Height : 2 160 pixels Display aspect ratio : 16:9 Frame rate mode : Constant Frame rate : 24.000 FPS Color space : YUV Chroma subsampling : 4:2:0 Bit depth : 10 bits Bits/(Pixel*Frame) : 0.083 Stream size : 15.7 GiB (76%) Default : Yes Forced : No Color range : Limited Color primaries : BT.709 Transfer characteristics : BT.709 Matrix coefficients : BT.709 Audio #1 ID : 2 Format : AC-3 Format/Info : Audio Coding 3 Commercial name : Dolby Digital Codec ID : A_AC3 Duration : 2 h 15 min Bit rate mode : Constant Bit rate : 640 kb/s Channel(s) : 6 channels Channel layout : L R C LFE Ls Rs Sampling rate : 48.0 kHz Frame rate : 31.250 FPS (1536 SPF) Compression mode : Lossy Stream size : 622 MiB (3%) Title : DUB (Red Head Sound) Language : Russian Service kind : Complete Main Default : Yes Forced : No Audio #2 ID : 3 Format : E-AC-3 Format/Info : Enhanced AC-3 Commercial name : Dolby Digital Plus Codec ID : A_EAC3 Duration : 2 h 15 min Bit rate mode : Constant Bit rate : 768 kb/s Channel(s) : 6 channels Channel layout : L R C LFE Ls Rs Sampling rate : 48.0 kHz Frame rate : 31.250 FPS (1536 SPF) Compression mode : Lossy Stream size : 747 MiB (4%) Title : MVO (HDRezka Studio) Language : Russian Service kind : Complete Main Default : No Forced : No Audio #3 ID : 4 Format : E-AC-3 Format/Info : Enhanced AC-3 Commercial name : Dolby Digital Plus Codec ID : A_EAC3 Duration : 2 h 15 min Bit rate mode : Constant Bit rate : 768 kb/s Channel(s) : 6 channels Channel layout : L R C LFE Ls Rs Sampling rate : 48.0 kHz Frame rate : 31.250 FPS (1536 SPF) Compression mode : Lossy Stream size : 747 MiB (4%) Title : MVO (NewStudio) Language : Russian Service kind : Complete Main Default : No Forced : No Audio #4 ID : 5 Format : E-AC-3 Format/Info : Enhanced AC-3 Commercial name : Dolby Digital Plus Codec ID : A_EAC3 Duration : 2 h 15 min Bit rate mode : Constant Bit rate : 768 kb/s Channel(s) : 6 channels Channel layout : L R C LFE Ls Rs Sampling rate : 48.0 kHz Frame rate : 31.250 FPS (1536 SPF) Compression mode : Lossy Stream size : 747 MiB (4%) Title : MVO (LostFilm) Language : Russian Service kind : Complete Main Default : No Forced : No Audio #5 ID : 6 Format : E-AC-3 Format/Info : Enhanced AC-3 Commercial name : Dolby Digital Plus Codec ID : A_EAC3 Duration : 2 h 15 min Bit rate mode : Constant Bit rate : 768 kb/s Channel(s) : 6 channels Channel layout : L R C LFE Ls Rs Sampling rate : 48.0 kHz Frame rate : 31.250 FPS (1536 SPF) Compression mode : Lossy Stream size : 747 MiB (4%) Title : MVO, (TVShows) Language : Russian Service kind : Complete Main Default : No Forced : No Audio #6 ID : 7 Format : E-AC-3 Format/Info : Enhanced AC-3 Commercial name : Dolby Digital Plus Codec ID : A_EAC3 Duration : 2 h 15 min Bit rate mode : Constant Bit rate : 768 kb/s Channel(s) : 6 channels Channel layout : L R C LFE Ls Rs Sampling rate : 48.0 kHz Frame rate : 31.250 FPS (1536 SPF) Compression mode : Lossy Stream size : 747 MiB (4%) Title : AVO (Ю. Сербин) Language : Russian Service kind : Complete Main Default : No Forced : No Audio #7 ID : 8 Format : E-AC-3 JOC Format/Info : Enhanced AC-3 with Joint Object Coding Commercial name : Dolby Digital Plus with Dolby Atmos Codec ID : A_EAC3 Duration : 2 h 15 min Bit rate mode : Constant Bit rate : 768 kb/s Channel(s) : 6 channels Channel layout : L R C LFE Ls Rs Sampling rate : 48.0 kHz Frame rate : 31.250 FPS (1536 SPF) Compression mode : Lossy Stream size : 747 MiB (4%) Title : Original Language : English Service kind : Complete Main Default : No Forced : No Complexity index : 16 Number of dynamic objects : 15 Bed channel count : 1 channel Bed channel configuration : LFE Text #1 ID : 9 Format : UTF-8 Codec ID : S_TEXT/UTF8 Codec ID/Info : UTF-8 Plain Text Duration : 2 h 1 min Bit rate : 0 b/s Count of elements : 10 Stream size : 587 Bytes (0%) Title : Forced Language : Russian Default : No Forced : No Text #2 ID : 10 Format : UTF-8 Codec ID : S_TEXT/UTF8 Codec ID/Info : UTF-8 Plain Text Duration : 2 h 12 min Bit rate : 59 b/s Count of elements : 1135 Stream size : 57.6 KiB (0%) Title : Full Language : Russian Default : No Forced : No Text #3 ID : 11 Format : UTF-8 Codec ID : S_TEXT/UTF8 Codec ID/Info : UTF-8 Plain Text Duration : 32 min 15 s Bit rate : 2 b/s Count of elements : 17 Stream size : 521 Bytes (0%) Title : Forced Language : English Default : No Forced : No Text #4 ID : 12 Format : UTF-8 Codec ID : S_TEXT/UTF8 Codec ID/Info : UTF-8 Plain Text Duration : 2 h 3 min Bit rate : 42 b/s Count of elements : 1161 Stream size : 38.7 KiB (0%) Title : Full Language : English Default : No Forced : No Text #5 ID : 13 Format : UTF-8 Codec ID : S_TEXT/UTF8 Codec ID/Info : UTF-8 Plain Text Duration : 2 h 13 min Bit rate : 48 b/s Count of elements : 1570 Stream size : 47.8 KiB (0%) Title : SDH Language : English Default : No Forced : No Menu 00:00:00.000 : :Chapter 1 00:10:00.000 : :Chapter 2 00:20:00.000 : :Chapter 3 00:30:00.000 : :Chapter 4 00:40:00.000 : :Chapter 5 00:50:00.000 : :Chapter 6 01:00:00.000 : :Chapter 7 01:10:00.000 : :Chapter 8 01:20:00.000 : :Chapter 9 01:30:00.000 : :Chapter 10 01:40:00.000 : :Chapter 11 01:50:00.000 : :Chapter 12 02:00:00.000 : :Chapter 13 02:10:00.000 : :Chapter 14
[+] Скриншоты
21.04.24 Добавлены переводы

Всего файлов в раздаче: 1 
Rebel Moon.Part One.A Child of Fire.(2023).WEB-DL 2160p.SDR.mkv20.74 GB

Похожие раздачи по запросу - Мятежная
2024-05-03 magnet Мятежная Луна, часть 2: Оставляющая шрамы / Rebel Moon - Part Two: The Scargiver (2024) WEB-DL HEVC 2160p | 4K | HDR | Dolby Vision Profile 8 | D 11.25 GB ↑ 0 ↓ 0
2024-04-29 magnet Мятежная Луна, часть 2: Оставляющая шрамы / Rebel Moon - Part Two: The Scargiver (2024) WEB-DL 1080p от New-Team | D, P 6.30 GB ↑ 0 ↓ 1
2024-04-29 magnet Мятежная Луна, часть 2: Оставляющая шрамы / Rebel Moon - Part Two: The Scargiver (2024) WEB-DLRip 720p от DoMiNo & селезень | D, P, P2 4.39 GB ↑ 0 ↓ 0
2024-04-28 magnet Мятежная Луна, часть 2: Оставляющая шрамы / Rebel Moon - Part Two: The Scargiver (2024) WEB-DLRip 720p от DoMiNo & селезень | D, P, P2 3.78 GB ↑ 0 ↓ 0
2024-04-28 magnet Мятежная Луна, часть 2: Оставляющая шрамы / Rebel Moon - Part Two: The Scargiver (2024) WEB-DL 1080p от EniaHD | D, P, P2, L 7.79 GB ↑ 1 ↓ 0
2024-04-24 magnet Мятежная Луна, часть 2: Дарующая шрамы / Rebel Moon. Частина 2: Та, що лишає шрами / Rebel Moon - Part Two: The Scargiver (2024) WEB-DL-HEVC 2160p | 4K | HDR | Dolby Vision Profile 8 | D | Netflix | UKR 11.75 GB ↑ 0 ↓ 0
2024-04-23 magnet Мятежная Луна, часть 2: Оставляющая шрамы / Rebel Moon - Part Two: The Scargiver (2024) WEB-DL-HEVC 2160p | 4K | HDR | P, P2 12.50 GB ↑ 1 ↓ 0

Кто качает (только для создателя раздачи и модераторов): Локальные пиры отсутствуют

Комментарии


Зарегистрируйтесь чтобы добавить комментарий
Торрент клиент
byTorrent - программа для загрузки торрент-файлов.

Скачать byTorrent.exe (1,5 МБ)

Скачать byTorrent.zip (0,6 МБ)

Поддержи torrent.by
российских рублей
(300 российских рублей это 4$)

Обратная связь rss

End game ©