↑↓torrent.by
Поиск
Логин:  Регистрация
Пароль:

Bruce Springsteen - Best of Bruce Springsteen [24-bit Hi-Res] (2024) FLAC

download Скачать торрент-файл   magnet Магнитная ссылка Размер: 2.88 GB Добавлен: 2024-04-22 11:00
Пиры будут получены из сети DHT
Последний сидер был замечен 2024-04-23 16:47
Название: Best of Bruce Springsteen Исполнитель: Bruce Springsteen Год: 2024 Жанр: Rock Издатель (лейбл): Columbia - Legacy Продолжительность: 02:18:26 Формат/Кодек: FLAC Тип рипа: Tracks Битрейт аудио: Lossless Разрядность: 24 Bit/96 kHz
[+] Трек-лист 01. Growin' Up (00:03:07) 02. Spirit In The Night (00:04:59) 03. Rosalita (Come Out Tonight) (00:07:02) 04. 4th Of July, Asbury Park (Sandy) (00:05:36) 05. Born To Run (00:04:30) 06. Tenth Avenue Freeze-Out (00:03:11) 07. Thunder Road (00:04:49) 08. Badlands (00:04:02) 09. Prove It All Night (00:03:59) 10. The River (00:05:00) 11. Hungry Heart (00:03:19) 12. Atlantic City (00:03:58) 13. Glory Days (00:04:15) 14. Dancing In The Dark (00:04:01) 15. Born In The U.S.A. (00:04:39) 16. Brilliant Disguise (00:04:16) 17. Tougher Than The Rest (00:04:36) 18. Human Touch (00:06:30) 19. If I Should Fall Behind (00:02:57) 20. Living Proof (00:04:46) 21. Streets Of Philadelphia (00:04:14) 22. The Ghost Of Tom Joad (00:04:22) 23. Secret Garden (00:04:28) 24. The Rising (00:04:48) 25. Long Time Comin' (00:04:14) 26. Girls In Their Summer Clothes (00:04:19) 27. The Wrestler (00:03:49) 28. We Take Care Of Our Own (00:03:54) 29. Hello Sunshine (00:03:56) 30. Ghosts (00:05:55) 31. Letter To You (00:04:55)
[+] DRM foobar2000 1.5.5 / Замер динамического диапазона (DR) 1.1.1 ------------------------------------------------------------------------------- Анализ: Bruce Springsteen / Best Of Bruce Springsteen -------------------------------------------------------------------------------- DR Пики RMS Продолжительность трека -------------------------------------------------------------------------------- DR8 -0.10 дБ -9.79 дБ 3:07 01-Growin' Up DR7 -0.09 дБ -9.10 дБ 4:59 02-Spirit In The Night DR7 -0.10 дБ -9.04 дБ 7:02 03-Rosalita (Come Out Tonight) DR8 -0.09 дБ -10.64 дБ 5:36 04-4th Of July, Asbury Park (Sandy) DR7 -0.09 дБ -8.25 дБ 4:30 05-Born To Run DR7 -0.09 дБ -8.71 дБ 3:11 06-Tenth Avenue Freeze-Out DR6 -0.09 дБ -8.62 дБ 4:49 07-Thunder Road DR8 -0.10 дБ -9.95 дБ 4:02 08-Badlands DR8 -0.09 дБ -9.31 дБ 3:59 09-Prove It All Night DR10 -0.10 дБ -11.80 дБ 5:00 10-The River DR9 -0.10 дБ -10.38 дБ 3:19 11-Hungry Heart DR8 -0.10 дБ -10.75 дБ 3:58 12-Atlantic City DR8 -0.08 дБ -9.40 дБ 4:15 13-Glory Days DR7 -0.09 дБ -8.50 дБ 4:01 14-Dancing In The Dark DR8 -0.09 дБ -9.76 дБ 4:39 15-Born In The U.S.A. DR8 -0.10 дБ -9.70 дБ 4:16 16-Brilliant Disguise DR9 -0.10 дБ -10.91 дБ 4:36 17-Tougher Than The Rest DR10 -0.09 дБ -11.44 дБ 6:30 18-Human Touch DR8 -0.09 дБ -11.10 дБ 2:57 19-If I Should Fall Behind DR7 -0.09 дБ -8.98 дБ 4:46 20-Living Proof DR8 -0.10 дБ -9.68 дБ 4:14 21-Streets Of Philadelphia DR10 -0.09 дБ -13.81 дБ 4:22 22-The Ghost Of Tom Joad DR8 -0.10 дБ -10.35 дБ 4:28 23-Secret Garden DR7 -0.20 дБ -9.90 дБ 4:48 24-The Rising DR6 -0.10 дБ -7.52 дБ 4:14 25-Long Time Comin' DR5 -1.50 дБ -7.92 дБ 4:19 26-Girls In Their Summer Clothes DR8 -1.24 дБ -13.04 дБ 3:49 27-The Wrestler DR7 -0.10 дБ -8.37 дБ 3:54 28-We Take Care Of Our Own DR6 -1.07 дБ -9.35 дБ 3:56 29-Hello Sunshine DR6 -0.08 дБ -7.71 дБ 5:55 30-Ghosts DR7 -0.10 дБ -8.92 дБ 4:55 31-Letter To You -------------------------------------------------------------------------------- Количество треков: 31 Реальные значения DR: DR8 Частота: 96000 Гц Каналов: 2 Разрядность: 24 Битрейт: 2914 кбит/с Кодек: FLAC ================================================================================
Время раздачи: 24/7 (минимум до появления первых 3-5 скачавших, на раздачи не возвращаюсь) Первое правило участника файлообмена: "Скачал сам - дай скачать другому!"

Всего файлов в раздаче: 32 
01. Growin' Up.flac71.41 MB
02. Spirit In The Night.flac113.82 MB
03. Rosalita (Come Out Tonight).flac163.71 MB
04. 4th Of July, Asbury Park (Sandy).flac124.09 MB
05. Born To Run.flac102.82 MB
06. Tenth Avenue Freeze-Out.flac69.90 MB
07. Thunder Road.flac104.90 MB
08. Badlands.flac90.68 MB
09. Prove It All Night.flac90.53 MB
10. The River.flac102.61 MB
Показать все файлы

Похожие раздачи по запросу - Bruce
Сегодня magnet Bruce Springsteen - The Live Series: Songs From Around The World Vol. 2 (2024) MP3 169.82 MB ↑ 0 ↓ 0
2024-04-22 magnet Bruce Springsteen - Best Of Bruce Springsteen (2024) MP3 323.05 MB ↑ 0 ↓ 0
2024-04-03 magnet Jack Bruce - Smiles And Grins: Broadcast Sessions, 1970-2001 (2024) FLAC 1.68 GB ↑ 0 ↓ 0
2024-02-23 magnet Bruce Dickinson - The Mandrake Project (2024) MP3 137.03 MB ↑ 0 ↓ 0

Кто качает (только для создателя раздачи и модераторов): Локальные пиры отсутствуют

Комментарии


Зарегистрируйтесь чтобы добавить комментарий
Торрент клиент
byTorrent - программа для загрузки торрент-файлов.

Скачать byTorrent.exe (1,5 МБ)

Скачать byTorrent.zip (0,6 МБ)

Поддержи torrent.by
российских рублей
(300 российских рублей это 4$)

Обратная связь rss

End game ©