↑↓torrent.by
Поиск
Логин:  Регистрация
Пароль:

Марк и Джефф спасают мир / Jeff Panacloc: À la poursuite de Jean-Marc (2023) BDRip 720p от DoMiNo & селезень | P, P1

download Скачать торрент-файл   magnet Магнитная ссылка Размер: 3.69 GB Добавлен: 2024-04-22 11:00
Пиры будут получены из сети DHT
Последний сидер был замечен 2024-04-26 20:00
Информация о фильме Название: Марк и Джефф спасают мир Оригинальное название: Jeff Panacloc: À la poursuite de Jean-Marc Год выхода: 2023 Жанр: Комедия Режиссер: Пьер-Франсуа Мартен-Лаваль В ролях: Джефф Панаклок, Клод Перрон, Венсан Деньяр, Патрик Лигарде, Тифен Давьо, Сара Фитри, Малик Фрика, Николя Марье, Шанталь Ладезу, Джералдин Лапалюс О фильме: Джефф почти что женат. Для полного счастья не хватает только благословения любимой бабули, живущей на другом конце страны. Но путь к ней внезапно преграждают люди в черном. Недавно из секретной лаборатории сбежал опасный преступник — плюшевая обезьянка Марк. И на ее поиски брошены лучшие агенты. Джефф и Марк находят друг друга и отправляются в самое опасное приключения в своей жизни. Ведь нет ничего страшнее, чем оставить невесту без праздника. Страна: Франция Студия: 74 Films, SND, M6 Films Продолжительность: 01:29:17 Перевод: Профессиональный (многоголосый, закадровый) | MOYGOLOS Перевод: Профессиональный (одноголосый, закадровый) | Кураж-Бамбей 18 + Субтитры: Русские (Full), французские (SDH) Файл Формат: Matroska Качество: BDRip 720p Видео: 1280x536 at 24.000 fps, x264@L4.1, ~4442 kbps Аудио 1: AC3, 6 ch, ~448 kbps - | Русский | | MOYGOLOS Аудио 2: AC3, 6 ch, ~384 kbps - | Русский | | Кураж-Бамбей 18+ Аудио 3: AC3, 6 ch, ~640 kbps - | Французский | | Original Формат субтитров: softsub (SRT) ***Рип от: -=DoMiNo=-
[+] M/IGeneral Unique ID : 136808350234797115748195626249722375958 (0x66EC547020D4A03016A03BA78A81AF16) Complete name : S:Jeff.Panacloc.A.la.poursuite.de.Jean.Marc.2023.BDRip.720p.x264.seleZen.mkv Format : Matroska Format version : Version 4 File size : 3.69 GiB Duration : 1 h 29 min Overall bit rate : 5 917 kb/s Frame rate : 24.000 FPS Movie name : Jeff.Panacloc.A.la.poursuite.de.Jean.Marc.2023.BDRip.720p.x264.seleZen Encoded date : 2024-04-21 19:24:12 UTC Writing application : mkvmerge v83.0 ('Circle Of Friends') 64-bit Writing library : libebml v1.4.5 + libmatroska v1.7.1 Cover : Yes Attachments : cover.jpg / small_cover.jpg Video ID : 1 Format : AVC Format/Info : Advanced Video Codec Format profile : High@L4.1 Format settings : CABAC / 12 Ref Frames Format settings, CABAC : Yes Format settings, Reference : 12 frames Codec ID : V_MPEG4/ISO/AVC Duration : 1 h 29 min Bit rate : 4 442 kb/s Width : 1 280 pixels Height : 536 pixels Display aspect ratio : 2.39:1 Frame rate mode : Constant Frame rate : 24.000 FPS Color space : YUV Chroma subsampling : 4:2:0 Bit depth : 8 bits Scan type : Progressive Bits/(Pixel*Frame) : 0.270 Stream size : 2.77 GiB (75%) Title : -=DoMiNo=- Writing library : x264 core 164 r3190 -DoMiNo Encoding settings : cabac=1 / ref=12 / deblock=1:-2:-2 / analyse=0x3:0x133 / me=umh / subme=10 / psy=1 / psy_rd=1.00:0.00 / mixed_ref=1 / me_range=32 / chroma_me=1 / trellis=2 / 8x8dct=1 / cqm=0 / deadzone=21,11 / fast_pskip=0 / chroma_qp_offset=-2 / threads=17 / lookahead_threads=4 / sliced_threads=0 / nr=0 / decimate=0 / interlaced=0 / bluray_compat=0 / constrained_intra=0 / bframes=10 / b_pyramid=2 / b_adapt=2 / b_bias=0 / direct=1 / weightb=1 / open_gop=0 / weightp=2 / keyint=240 / keyint_min=24 / scenecut=40 / intra_refresh=0 / rc_lookahead=60 / rc=crf / mbtree=0 / crf=15.3 / qcomp=0.60 / qpmin=0 / qpmax=69 / qpstep=4 / vbv_maxrate=50000 / vbv_bufsize=62500 / crf_max=0.0 / nal_hrd=none / filler=0 / ip_ratio=1.40 / pb_ratio=1.30 / aq=3:0.80 Language : English Default : Yes Forced : No Color range : Limited Color primaries : BT.709 Transfer characteristics : BT.709 Matrix coefficients : BT.709 Audio #1 ID : 2 Format : AC-3 Format/Info : Audio Coding 3 Commercial name : Dolby Digital Codec ID : A_AC3 Duration : 1 h 29 min Bit rate mode : Constant Bit rate : 448 kb/s Channel(s) : 6 channels Channel layout : L R C LFE Ls Rs Sampling rate : 48.0 kHz Frame rate : 31.250 FPS (1536 SPF) Compression mode : Lossy Stream size : 286 MiB (8%) Title : MVO -MOYGOLOS Language : Russian Service kind : Complete Main Default : Yes Forced : No AC3_metadata cmixlev : -3.0 dB surmixlev : -3 dB Audio #2 ID : 3 Format : AC-3 Format/Info : Audio Coding 3 Commercial name : Dolby Digital Codec ID : A_AC3 Duration : 1 h 29 min Bit rate mode : Constant Bit rate : 384 kb/s Channel(s) : 6 channels Channel layout : L R C LFE Ls Rs Sampling rate : 48.0 kHz Frame rate : 31.250 FPS (1536 SPF) Compression mode : Lossy Stream size : 245 MiB (6%) Title : VO -Кураж-Бамбей 18+) Language : Russian Service kind : Complete Main Default : No Forced : No AC3_metadata cmixlev : -3.0 dB surmixlev : -3 dB Audio #3 ID : 4 Format : AC-3 Format/Info : Audio Coding 3 Commercial name : Dolby Digital Codec ID : A_AC3 Duration : 1 h 29 min Bit rate mode : Constant Bit rate : 640 kb/s Channel(s) : 6 channels Channel layout : L R C LFE Ls Rs Sampling rate : 48.0 kHz Frame rate : 31.250 FPS (1536 SPF) Compression mode : Lossy Stream size : 409 MiB (11%) Title : Original Language : French Service kind : Complete Main Default : No Forced : No AC3_metadata cmixlev : -4.5 dB surmixlev : -6 dB Text #1 ID : 5 Format : UTF-8 Codec ID : S_TEXT/UTF8 Codec ID/Info : UTF-8 Plain Text Duration : 1 h 27 min Bit rate : 111 b/s Frame rate : 0.304 FPS Count of elements : 1592 Stream size : 70.9 KiB (0%) Title : Full Language : Russian Default : No Forced : No Text #2 ID : 6 Format : UTF-8 Codec ID : S_TEXT/UTF8 Codec ID/Info : UTF-8 Plain Text Duration : 1 h 28 min Bit rate : 76 b/s Frame rate : 0.322 FPS Count of elements : 1715 Stream size : 49.4 KiB (0%) Title : SDH Language : French Default : No Forced : No Menu 00:00:00.000 : Глава 1 00:07:25.958 : Глава 2 00:14:09.000 : Глава 3 00:22:04.041 : Глава 4 00:28:21.916 : Глава 5 00:34:52.125 : Глава 6 00:41:11.333 : Глава 7 00:50:10.666 : Глава 8 00:58:50.875 : Глава 9 01:06:03.875 : Глава 10 01:15:39.375 : Глава 11 01:24:22.458 : Глава 12 01:29:17.500 : Глава 13
Релиз: Присоединяйся к: Кликай на баннеры.

Всего файлов в раздаче: 1 
Jeff.Panacloc.A.la.poursuite.de.Jean.Marc.2023.BDRip.720p.x264.seleZen.mkv3.69 GB

Похожие раздачи по запросу - Марк
2024-04-23 magnet Марк и Джефф спасают мир / Jeff Panacloc: À la poursuite de Jean-Marc (2023) BDRip 1080p от ExKinoRay | P, P1 7.31 GB ↑ 0 ↓ 0
2024-04-23 magnet Марк и Джефф спасают мир / Jeff Panacloc: À la poursuite de Jean-Marc (2023) BDRip от New-Team | P 1.46 GB ↑ 0 ↓ 0
2024-04-22 magnet Марк и Джефф спасают мир / Jeff Panacloc: À la poursuite de Jean-Marc (2023) BDRip-AVC от DoMiNo & селезень | P, P1 1.46 GB ↑ 0 ↓ 0
2024-04-22 magnet Марк и Джефф спасают мир / Jeff Panacloc: À la poursuite de Jean-Marc (2023) WEB-DL 1080p от ExKinoRay | P, P1 4.85 GB ↑ 0 ↓ 0
2024-04-22 magnet Марк и Джефф спасают мир / Jeff Panacloc: À la poursuite de Jean-Marc (2023) WEB-DL-HEVC 2160p от ExKinoRay | 4K | SDR | P, P1 8.13 GB ↑ 0 ↓ 0
2024-03-02 magnet Ларри Гоник, Марк Уилис - Генетика. Краткий курс в комиксах (2023) PDF 21.97 MB ↑ 0 ↓ 0
2021-09-11 magnet Милнер Марк - Работы по дереву. Лестницы от А до Я. Исчерпывающее руководство (2017) PDF 24.03 MB ↑ 0 ↓ 0

Комментарии


Зарегистрируйтесь чтобы добавить комментарий
Торрент клиент
byTorrent - программа для загрузки торрент-файлов.

Скачать byTorrent.exe (1,5 МБ)

Скачать byTorrent.zip (0,6 МБ)

Поддержи torrent.by
российских рублей
(300 российских рублей это 4$)

Обратная связь rss

End game ©