↑↓torrent.by
Поиск
Логин:  Регистрация
Пароль:

Шугар / Sugar [01x01-04 из 08] (2024) WEB-DL 1080p от Jaskier | P

download Скачать торрент-файл   magnet Магнитная ссылка Размер: 11.91 GB Добавлен: 2024-04-22 17:00
Пиры будут получены из сети DHT
Последний сидер был замечен 2024-04-22 17:00
Информация о фильме Название: Шугар Оригинальное название: Sugar Год выхода: 2024 Жанр: триллер, драма, криминал, детектив Режиссер: Фернанду Мейреллиш, Адам Аркин В ролях: Колин Фаррелл, Кирби Хауэлл-Батист, Эми Райан, Деннис Буцикарис, Нэйт Корддри, Алекс Эрнандес, Джеймс Кромуэлл, Анна Ганн, Масси Фурлан, Эрик Ланж О фильме: Загадочный частный детектив борется с собственными демонами, расследуя исчезновение любимой внучки голливудского продюсера. Страна: США Студия: Apple Studios, Apple TV+, Genre Films Продолжительность: ~00:49:00 Перевод: Профессиональный (многоголосый закадровый) Jaskier Файл Кодек: MKV Качество: WEB-DL 1080p Видео: AVC, 1920x1080 (16:9), 23.976 fps, ~9824 kbps Звук: Аудио 1: Русский, AC-3, 48 kHz, 6 ch, 384 kbps | Jaskier Аудио 2: Английский, E-AC-3 JOC, 48 kHz, 6 ch, 768 kbps Субтитры: Русские, Английские (Full, SDH) Семпл
[+] MediaInfo General Unique ID : 250973210630955318850334264288084974348 (0xBCCFAEA1FE31A86D8B859D0AB82F5B0C) Complete name : E:TorrentSugar.2024.S01.1080p.ATVP.WEB-DL.DDP5.1.Atmos.H.264-JaskierSugar.2024.S01E01.Olivia.1080p.ATVP.WEB-DL.DDP5.1.Atmos.H.264-Jaskier.mkv Format : Matroska Format version : Version 4 File size : 3.84 GiB Duration : 49 min 7 s Overall bit rate : 11.2 Mb/s Frame rate : 23.976 FPS Encoded date : 2024-04-07 10:47:55 UTC Writing application : mkvmerge v6.6.0 ('The Edge Of The In Between') built on Dec 1 2013 17:55:00 Writing library : libebml v1.3.0 + libmatroska v1.4.1 Video ID : 1 Format : AVC Format/Info : Advanced Video Codec Format profile : High@L4 Format settings : CABAC / 4 Ref Frames Format settings, CABAC : Yes Format settings, Reference frames : 4 frames Format settings, Slice count : 8 slices per frame Codec ID : V_MPEG4/ISO/AVC Duration : 49 min 7 s Bit rate : 9 824 kb/s Width : 1 920 pixels Height : 1 080 pixels Display aspect ratio : 16:9 Frame rate mode : Constant Frame rate : 23.976 (24000/1001) FPS Color space : YUV Chroma subsampling : 4:2:0 Bit depth : 8 bits Scan type : Progressive Bits/(Pixel*Frame) : 0.198 Stream size : 3.37 GiB (88%) Language : English Default : Yes Forced : No Color range : Limited Color primaries : BT.709 Transfer characteristics : BT.709 Matrix coefficients : BT.709 Audio #1 ID : 2 Format : AC-3 Format/Info : Audio Coding 3 Commercial name : Dolby Digital Codec ID : A_AC3 Duration : 49 min 7 s Bit rate mode : Constant Bit rate : 384 kb/s Channel(s) : 6 channels Channel layout : L R C LFE Ls Rs Sampling rate : 48.0 kHz Frame rate : 31.250 FPS (1536 SPF) Compression mode : Lossy Stream size : 135 MiB (3%) Title : Jaskier Language : Russian Service kind : Complete Main Default : Yes Forced : No Audio #2 ID : 3 Format : E-AC-3 JOC Format/Info : Enhanced AC-3 with Joint Object Coding Commercial name : Dolby Digital Plus with Dolby Atmos Codec ID : A_EAC3 Duration : 49 min 7 s Bit rate mode : Constant Bit rate : 768 kb/s Channel(s) : 6 channels Channel layout : L R C LFE Ls Rs Sampling rate : 48.0 kHz Frame rate : 31.250 FPS (1536 SPF) Compression mode : Lossy Stream size : 270 MiB (7%) Title : Original Language : English Service kind : Complete Main Default : No Forced : No Complexity index : 16 Number of dynamic objects : 15 Bed channel count : 1 channel Bed channel configuration : LFE Text #1 ID : 4 Format : UTF-8 Codec ID : S_TEXT/UTF8 Codec ID/Info : UTF-8 Plain Text Language : Russian Default : No Forced : No Text #2 ID : 5 Format : UTF-8 Codec ID : S_TEXT/UTF8 Codec ID/Info : UTF-8 Plain Text Language : English Default : No Forced : No Text #3 ID : 6 Format : UTF-8 Codec ID : S_TEXT/UTF8 Codec ID/Info : UTF-8 Plain Text Title : SDH Language : English Default : No Forced : No
[+] Скриншоты
Релиз от: Jaskier

Всего файлов в раздаче: 4 
Sugar.2024.S01E01.Olivia.1080p.ATVP.WEB-DL.DDP5.1.Atmos.H.264-Jaskier.mkv3.84 GB
Sugar.2024.S01E02.These.People.These.Places.1080p.ATVP.WEB-DL.DDP5.1.Atmos.H.264-Jaskier.mkv2.80 GB
Sugar.2024.S01E03.Shibuya.Crossing.1080p.ATVP.WEB-DL.DDP5.1.H.264-Jaskier.mkv2.58 GB
Sugar.2024.S01E04.Starry-Eyed.1080p.ATVP.WEB-DL.DDP5.1.H.264-Jaskier.mkv2.69 GB

Похожие раздачи по запросу - Шугар
Сегодня magnet Шугар / Sugar [S01] (2024) WEB-DLRip | LostFilm 4.08 GB ↑ 0 ↓ 2
Вчера magnet Шугар / Sugar [S01] (2024) WEB-DL 1080p от Jaskier | P 22.91 GB ↑ 0 ↓ 1
2024-05-19 magnet Шугар / Sugar [S01] (2024) WEB-DL 1080p | HDRezka Studio, LostFilm, TVShows, Red Head Sound 24.41 GB ↑ 0 ↓ 4
2024-05-19 magnet Шугар / Sugar [S01] (2024) WEB-DLRip-AVC от DoMiNo & селезень | HDRezka Studio 3.93 GB ↑ 0 ↓ 0
2024-05-18 magnet Шугар / Sugar [S01] (2024) WEBRip от Kerob | L2 3.14 GB ↑ 0 ↓ 0
2024-05-18 magnet Шугар / Sugar [S01] (2024) WEBRip 1080p от Kerob | L2 10.90 GB ↑ 0 ↓ 1
2024-05-18 magnet Шугар / Sugar [S01] (2024) WEBRip 1080p | ViruseProject 1К10.31 GB ↑ 1 ↓ 0

Кто качает (только для создателя раздачи и модераторов): Локальные пиры отсутствуют

Комментарии


Зарегистрируйтесь чтобы добавить комментарий
Торрент клиент
byTorrent - программа для загрузки торрент-файлов.

Скачать byTorrent.exe (1,5 МБ)

Скачать byTorrent.zip (0,6 МБ)

Поддержи torrent.by
российских рублей
(300 российских рублей это 4$)

Обратная связь rss

End game ©