↑↓torrent.by
Поиск
Логин:  Регистрация
Пароль:

Последняя ночь в Тэррас Лэйнс / Последняя ночь в Terrace Lanes / Last Night at Terrace Lanes (2024) WEB-DLRip-AVC от New-Team | D

download Скачать торрент-файл   magnet Магнитная ссылка Размер: 1.46 GB Добавлен: 2024-04-22 17:00
Пиры будут получены из сети DHT
Последний сидер был замечен 2024-04-22 20:04
Последняя ночь в Тэррас Лэйнс / Последняя ночь в Terrace Lanes / Last Night at Terrace Lanes Год выпуска: 2024 Выпущено: США / Bard Tales Productions, Cinematic Productions, Epic Pictures Жанр: ужасы, триллер, комедия Режиссер: Джэми Нэш / Jamie Nash В ролях: Кен Арнольд, Джессения Ребекка Бомонт, Франческа Капальди, Джек Франко, Карло Глориосо, Кристофер Инлоу, Рэйвен Джексон, Уэс Джонсон, Сэм Луковски, Крис Райдингс, Миа Рэй Робертс, Анита Шарма, Хиллари Стайер, Тоуанда Андердью, Дэн Веркман О фильме: Юная Кеннеди и ее друзья оказываются в боулинг-клубе «Террас Лэйнс» в последнюю ночь его работы. Но вскоре веселое приключение оборачивается для молодых людей настоящим кошмаром. Неожиданно для компании в заведение вторгается кровожадная группировка в голубых костюмах и белых масках. Испытывая удовлетворение от своей жестокости, незнакомцы начинают преследовать всех находящихся в клубе, убивая каждого встречного. В здании оказывается и отец Кеннеди, который работает здесь ремонтником. Невзирая на то, что школьница всегда стыдилась своего отца, теперь Кеннеди и ее папе придется объединить усилия, чтобы попытаться пережить эту кошмарную ночь. Продолжительность: 01:15:36 Перевод: Профессиональный (полное дублирование) | CPI Films Субтитры: Русские (full), английские (SDH) Раздача от: Автор релиза: JNS82. Формат: MKV Качество: WEB-DLRip-AVC Видео: MPEG-4 AVC, x264, 2130 Кбит/с, (1.85:1), 1024x554, 23.976 fps Аудио #1: 48 kHz, AC3 Dolby Digital, 2/0 (L,R) ch, ~ 256 kbps | RUS | Аудио #2: 48 kHz, AC3 Dolby Digital, 3/2 (L,C,R,l,r) + LFE ch, ~ 384 kbps | ENG |
[+] MediaInfoОбщее Уникальный идентификатор : 95033065745912943499542958832800816341 (0x477EB3E452F06BA51AA0A1BDD40CDCD5) Полное имя : D:TorrentsLast.Night.at.Terrace.Lanes.2024.WEB-DLRip-AVC_от_New-Team_by_JNS82.mkv Формат : Matroska Версия формата : Version 4 Размер файла : 1,46 Гбайт Продолжительность : 1 ч. 15 мин. Общий битрейт : 2 769 Кбит/сек Частота кадров : 23,976 кадра/сек Название фильма : Last.Night.at.Terrace.Lanes.2024.WEB-DLRip-AVC_от_New-Team_by_JNS82 Дата кодирования : 2024-04-21 14:25:30 UTC Программа кодирования : mkvmerge v79.0 ('Funeral Pyres') 64-bit Библиотека кодирования : libebml v1.4.4 + libmatroska v1.7.1 Видео Идентификатор : 1 Формат : AVC Формат/Информация : Advanced Video Codec Профиль формата : High@L4.1 Настройки формата : CABAC / 14 Ref Frames Параметр CABAC формата : Да Параметр RefFrames формата : 14 кадров Идентификатор кодека : V_MPEG4/ISO/AVC Продолжительность : 1 ч. 15 мин. Битрейт : 2 130 Кбит/сек Ширина : 1 024 пикселя Высота : 554 пикселя Соотношение сторон дисплея : 1,85:1 Режим частоты кадров : Постоянный Частота кадров : 23,976 (24000/1001) кадра/сек Цветовое пространство : YUV Цветовая субдискретизация : 4:2:0 Битовая глубина : 8 бит Тип развёртки : Прогрессивная Бит/(Пиксели*Кадры) : 0.157 Размер потока : 1,12 Гбайт (77%) Библиотека кодирования : x264 core 164 r3156+57M NewTeam t_mod_New Параметры библиотеки кодирования : cabac=1 / ref=14 / deblock=1:-3:-3 / analyse=0x3:0x133 / me=umh / subme=10 / psy=1 / fade_compensate=0.00 / psy_rd=1.03:0.01 / mixed_ref=1 / me_range=32 / chroma_me=1 / trellis=2 / 8x8dct=1 / cqm=0 / deadzone=21,11 / fast_pskip=0 / chroma_qp_offset=-3 / threads=17 / lookahead_threads=2 / sliced_threads=0 / nr=0 / decimate=0 / interlaced=0 / bluray_compat=0 / constrained_intra=0 / fgo=0 / bframes=9 / b_pyramid=2 / b_adapt=2 / b_bias=0 / direct=3 / weightb=1 / open_gop=0 / weightp=2 / keyint=250 / keyint_min=23 / scenecut=40 / intra_refresh=0 / rc_lookahead=60 / rc=2pass / mbtree=0 / bitrate=2130 / ratetol=1.0 / qcomp=0.60 / qpmin=0:0:0 / qpmax=69:69:69 / qpstep=5 / cplxblur=20.0 / qblur=0.5 / vbv_maxrate=50000 / vbv_bufsize=62500 / nal_hrd=none / filler=0 / ip_ratio=1.35 / pb_ratio=1.25 / aq=1:1.00 / aq-sensitivity=10.00 / aq-factor=1.00:1.00:1.00 / aq2=0 / aq3=0 Язык : Английский По умолчанию : Да Принудительно : Нет Аудио #1 Идентификатор : 2 Формат : AC-3 Формат/Информация : Audio Coding 3 Коммерческое название : Dolby Digital Идентификатор кодека : A_AC3 Продолжительность : 1 ч. 15 мин. Вид битрейта : Постоянный Битрейт : 256 Кбит/сек Канал(-ы) : 2 канала Расположение каналов : L R Частота дискретизации : 48,0 КГц Частота кадров : 31,250 кадров/сек (1536 SPF) Метод сжатия : С потерями Размер потока : 138 Мбайт (9%) Заголовок : DUB - CPI Films Язык : Русский Вид сервиса : Complete Main По умолчанию : Да Принудительно : Нет Нормализация звука речи : -31 dB dialnorm_Average : -31 dB dialnorm_Minimum : -31 dB dialnorm_Maximum : -31 dB Аудио #2 Идентификатор : 3 Формат : AC-3 Формат/Информация : Audio Coding 3 Коммерческое название : Dolby Digital Идентификатор кодека : A_AC3 Продолжительность : 1 ч. 15 мин. Вид битрейта : Постоянный Битрейт : 384 Кбит/сек Канал(-ы) : 6 каналов Расположение каналов : L R C LFE Ls Rs Частота дискретизации : 48,0 КГц Частота кадров : 31,250 кадров/сек (1536 SPF) Метод сжатия : С потерями Размер потока : 208 Мбайт (14%) Заголовок : Original Язык : Английский Вид сервиса : Complete Main По умолчанию : Нет Принудительно : Нет Нормализация звука речи : -31 dB cmixlev : -4.5 dB surmixlev : -6 dB dialnorm_Average : -31 dB dialnorm_Minimum : -31 dB dialnorm_Maximum : -31 dB Текст #1 Идентификатор : 4 Формат : UTF-8 Идентификатор кодека : S_TEXT/UTF8 Идентификатор кодека/Информация : UTF-8 Plain Text Продолжительность : 1 ч. 11 мин. Битрейт : 70 бит/сек Частота кадров : 0,231 кадр/сек Число элементов : 995 Размер потока : 37,2 КиБ (0%) Заголовок : Язык : Русский По умолчанию : Нет Принудительно : Нет Текст #2 Идентификатор : 5 Формат : UTF-8 Идентификатор кодека : S_TEXT/UTF8 Идентификатор кодека/Информация : UTF-8 Plain Text Продолжительность : 1 ч. 15 мин. Битрейт : 56 бит/сек Частота кадров : 0,311 кадр/сек Число элементов : 1403 Размер потока : 30,9 КиБ (0%) Заголовок : Язык : Английский По умолчанию : Нет Принудительно : Нет

Всего файлов в раздаче: 1 
Last.Night.at.Terrace.Lanes.2024.WEB-DLRip-AVC_от_New-Team_by_JNS82.mkv1.46 GB

Похожие раздачи по запросу - Последняя
2024-05-19 magnet Последняя остановка в округе Юма / The Last Stop in Yuma County (2023) WEB-DLRip-AVC от DoMiNo | L 1.49 GB ↑ 0 ↓ 3
2024-05-19 magnet Последняя остановка в округе Юма / The Last Stop in Yuma County (2023) WEB-DL 1080p от JNS82 | L 6.52 GB ↑ 1 ↓ 10
2024-05-09 magnet Алексей Осадчук - Последняя жизнь 4. Пламя Севера (2024) MP3 248.27 MB ↑ 0 ↓ 0
2024-04-22 magnet Последняя ночь в Тэррас Лэйнс / Последняя ночь в Terrace Lanes / Last Night at Terrace Lanes (2024) WEB-DLRip от ELEKTRI4KA | D 1.09 GB ↑ 0 ↓ 0
2024-04-22 magnet Последняя ночь в Тэррас Лэйнс / Последняя ночь в Terrace Lanes / Last Night at Terrace Lanes (2024) WEB-DLRip 720p от DoMiNo & селезень | D 2.13 GB ↑ 0 ↓ 0
2024-04-22 magnet Последняя ночь в Тэррас Лэйнс / Последняя ночь в Terrace Lanes / Last Night at Terrace Lanes (2024) WEB-DL 1080p от ELEKTRI4KA | D 5.50 GB ↑ 0 ↓ 0
2024-04-17 magnet Последняя татуировка / The Last Tattoo (1994) DVDRip-AVC от ExKinoRay | P 2.10 GB ↑ 0 ↓ 0

Кто качает (только для создателя раздачи и модераторов): Локальные пиры отсутствуют

Комментарии


Зарегистрируйтесь чтобы добавить комментарий
Торрент клиент
byTorrent - программа для загрузки торрент-файлов.

Скачать byTorrent.exe (1,5 МБ)

Скачать byTorrent.zip (0,6 МБ)

Поддержи torrent.by
российских рублей
(300 российских рублей это 4$)

Обратная связь rss

End game ©