↑↓torrent.by
Поиск
Логин:  Регистрация
Пароль:

Папины дочки. Новые [02x01-12 из 20] (2024) WEB-DL 1080p

download Скачать торрент-файл   magnet Магнитная ссылка Размер: 10.25 GB Добавлен: 2024-04-23 05:00
Пиры будут получены из сети DHT
Последний сидер был замечен 2024-04-23 05:00
Информация о сериале Оригинальное название: Папины дочки. Новые Год выпуска: 2024 Жанр: Комедия Выпущено: Россия, СТС Режиссер: Александр Жигалкин В ролях: Филипп Бледный, Андрей Леонов, Виталия Корниенко, Ева Смирнова, Полина Айнутдинова, Полина Денисова, Нонна Гришаева, Мирослава Карпович, Анастасия Сиваева, Елизавета Арзамасова, Ольга Волкова, Дарья Мельникова, Екатерина Старшова, Татьяна Орлова, Александр Олешко, Анна Димова, Алексей Демидов, Ярослав Шуменков, Влад Фельдман, Тимофей Кочнев О сериале: Во втором сезоне приключения неунывающей семейки во главе с Вениамином продолжаются. Спустя полгода Веник не теряет надежды найти сбежавшую Дашу и не без труда занимается воспитанием четырёх дочерей: Лизы, Дианы, Арины и Сони. Проблем ему подкинут и тёти девочек, и бабушка с дедушкой, и новые соседи. Файл Формат: MKV Качество: WEB-DL 1080p Видео: MPEG-4 AVC, ~ 5000 Кбит/с, 1920x1080 Аудио: AC3, 2 ch, 256 Кбит/с Продолжительность: ~ 00:25:00 Язык: Русский Субтитры: Русские (1-9 серии) - отдельно
[+] MIGeneral Unique ID : 284581673449295349874449023764962492546 (0xD6186FC86CA1D1D5037981C1E0D44082) Complete name : W:Papiny.dochki.Novye.S02.WEB-DL.1080p.MrMittensPapiny.dochki.Novye.S02.E01.WEB-DL.1080p.MrMittens.mkv Format : Matroska Format version : Version 4 / Version 2 File size : 871 MiB Duration : 23 min 21 s Overall bit rate : 5 213 kb/s Encoded date : UTC 2024-04-15 18:13:13 Writing application : mkvmerge v43.0.0 ('The Quartermaster') 64-bit Writing library : libebml v1.3.10 + libmatroska v1.5.2 Video ID : 1 Format : AVC Format/Info : Advanced Video Codec Format profile : High@L4 Format settings : CABAC / 3 Ref Frames Format settings, CABAC : Yes Format settings, ReFrames : 3 frames Codec ID : V_MPEG4/ISO/AVC Duration : 23 min 21 s Bit rate : 5 000 kb/s Width : 1 920 pixels Height : 1 080 pixels Display aspect ratio : 16:9 Frame rate mode : Constant Frame rate : 25.000 FPS Color space : YUV Chroma subsampling : 4:2:0 Bit depth : 8 bits Scan type : Progressive Bits/(Pixel*Frame) : 0.096 Stream size : 828 MiB (95%) Writing library : x264 core 164 r3095 baee400 Encoding settings : cabac=1 / ref=4 / deblock=1:-1:-1 / analyse=0x3:0x133 / me=umh / subme=9 / psy=1 / psy_rd=0.40:1.00 / mixed_ref=1 / me_range=24 / chroma_me=1 / trellis=0 / 8x8dct=1 / cqm=0 / deadzone=21,11 / fast_pskip=1 / chroma_qp_offset=-2 / threads=3 / lookahead_threads=1 / sliced_threads=0 / nr=0 / decimate=1 / interlaced=0 / bluray_compat=0 / stitchable=1 / constrained_intra=0 / bframes=8 / b_pyramid=1 / b_adapt=0 / b_bias=0 / direct=3 / weightb=1 / open_gop=0 / weightp=2 / keyint=75 / keyint_min=38 / scenecut=0 / intra_refresh=0 / rc_lookahead=40 / rc=2pass / mbtree=1 / bitrate=5000 / ratetol=1.0 / qcomp=0.80 / qpmin=1 / qpmax=69 / qpstep=4 / cplxblur=20.0 / qblur=0.5 / vbv_maxrate=7500 / vbv_bufsize=10000 / nal_hrd=none / filler=0 / ip_ratio=1.40 / aq=1:1.00 Language : English Default : Yes Forced : No Color range : Limited Color primaries : BT.709 Transfer characteristics : BT.709 Matrix coefficients : BT.709 Audio ID : 2 Format : AC-3 Format/Info : Audio Coding 3 Codec ID : A_AC3 Duration : 23 min 21 s Bit rate mode : Constant Bit rate : 256 kb/s Channel(s) : 2 channels Channel positions : Front: L R Sampling rate : 48.0 kHz Frame rate : 31.250 FPS (1536 SPF) Bit depth : 16 bits Compression mode : Lossy Stream size : 42.8 MiB (5%) Language : Russian Service kind : Complete Main Default : Yes Forced : No
[+] Скриншоты

Всего файлов в раздаче: 21 
Papiny.dochki.Novye.S02.E01.WEB-DL.1080p.MrMittens.mkv871.13 MB
Papiny.dochki.Novye.S02.E01.WEB-DL.1080p.MrMittens.vtt32.42 kB
Papiny.dochki.Novye.S02.E02.WEB-DL.1080p.MrMittens.mkv876.55 MB
Papiny.dochki.Novye.S02.E02.WEB-DL.1080p.MrMittens.vtt29.61 kB
Papiny.dochki.Novye.S02.E03.WEB-DL.1080p.MrMittens.mkv851.68 MB
Papiny.dochki.Novye.S02.E03.WEB-DL.1080p.MrMittens.vtt23.97 kB
Papiny.dochki.Novye.S02.E04.WEB-DL.1080p.MrMittens.mkv903.04 MB
Papiny.dochki.Novye.S02.E04.WEB-DL.1080p.MrMittens.vtt34.72 kB
Papiny.dochki.Novye.S02.E05.WEB-DL.1080p.MrMittens.mkv891.69 MB
Papiny.dochki.Novye.S02.E05.WEB-DL.1080p.MrMittens.vtt31.62 kB
Показать все файлы

Похожие раздачи по запросу - Папины
2024-04-27 magnet Папины дочки. Новые [S02] (2024) WEB-DLRip от Files-х 5.78 GB ↑ 0 ↓ 0
2024-04-27 magnet Папины дочки. Новые [S02] (2024) WEB-DLRip-AVC от Files-x 5.86 GB ↑ 0 ↓ 0
2024-04-26 magnet Папины дочки. Новые [02х01-18 из 20] (2024) WEB-DLRip-AVC от Files-x 5.23 GB ↑ 0 ↓ 0
2024-04-25 magnet Папины дочки. Новые [02х01-16 из 20] (2024) WEB-DLRip-AVC от Files-x 4.68 GB ↑ 0 ↓ 0
2024-04-25 magnet Папины дочки. Новые [02x01-16 из 20] (2024) WEB-DLRip от Files-х 4.61 GB ↑ 0 ↓ 0
2024-04-25 magnet Папины дочки. Новые [02x01-16 из 20] (2024) WEB-DL 1080p 13.61 GB ↑ 0 ↓ 0
2024-04-22 magnet Папины дочки. Новые [02х01-12 из 20] (2024) WEB-DLRip-AVC от Files-x 3.52 GB ↑ 0 ↓ 0

Кто качает (только для создателя раздачи и модераторов): Локальные пиры отсутствуют

Комментарии


Зарегистрируйтесь чтобы добавить комментарий
Торрент клиент
byTorrent - программа для загрузки торрент-файлов.

Скачать byTorrent.exe (1,5 МБ)

Скачать byTorrent.zip (0,6 МБ)

Поддержи torrent.by
российских рублей
(300 российских рублей это 4$)

Обратная связь rss

End game ©