↑↓torrent.by
Поиск
Логин:  Регистрация
Пароль:

Дело Гольдмана / Le procès Goldman / The Goldman Case (2023) BDRip-AVC от New-Team | P | Jaskier

download Скачать торрент-файл   magnet Магнитная ссылка Размер: 2.05 GB Добавлен: 2024-04-23 05:00
Пиры будут получены из сети DHT
Последний сидер был замечен 2024-04-23 05:00
Дело Гольдмана / Le procès Goldman / The Goldman Case Год выпуска: 2023 Выпущено: Франция / Ad Vitam Production, Canal+ , Centre National du Cinéma, Ciné, Cinémage 17, Indéfilms 11, Moonshaker, SG Image 2021, Tropdebonheur Productions Жанр: драма, криминал, история Режиссер: Седрик Кан / Cédric Kahn В ролях: Арье Вортхальтер, Артур Харари, Стефан Гуэрин-Тилли, Николя Бриансон, Орельен Шоссаж, Кристиан Мазуччини, Джереми Левин, Ежи Радзивилович, Хлоя Лесерф, Летиция Массон, Дидье Борга, Артур Верре, Присцилла Лопес, Пол Жансон, Присцилла Мартин О фильме: Хроника суда над Голдманом, французским левым революционером, который был осужден за несколько ограблений. Продолжительность: 01:55:54 Перевод: Профессиональный (многоголосый закадровый) | Jaskier Субтитры: Английские (full) Раздача от: Автор релиза: JNS82. Формат: MKV Качество: BDRip-AVC Видео: MPEG-4 AVC, x264, 768x576, 2144 Кбит/с, (4:3), 24,000 fps Аудио #1: 48 kHz, AC3 Dolby Digital, 3/2 (L,C,R,l,r) + LFE ch, ~ 384 kbps | RUS |
[+] MediaInfoОбщее Уникальный идентификатор : 321483709104769883024772454770127987981 (0xF1DB829C737EE9805BCDA11C06C8E50D) Полное имя : D:TorrentsThe.Goldman.Case.2023.BDRip-AVC_от New-Team_by_JNS82.mkv Формат : Matroska Версия формата : Version 4 Размер файла : 2,05 Гбайт Продолжительность : 1 ч. 55 мин. Общий битрейт : 2 528 Кбит/сек Частота кадров : 24,000 кадра/сек Название фильма : The.Goldman.Case.2023.BDRip-AVC_от New-Team_by_JNS82 Дата кодирования : 2024-04-22 19:01:19 UTC Программа кодирования : mkvmerge v79.0 ('Funeral Pyres') 64-bit Библиотека кодирования : libebml v1.4.4 + libmatroska v1.7.1 Видео Идентификатор : 1 Формат : AVC Формат/Информация : Advanced Video Codec Профиль формата : High@L4.1 Настройки формата : CABAC / 10 Ref Frames Параметр CABAC формата : Да Параметр RefFrames формата : 10 кадров Идентификатор кодека : V_MPEG4/ISO/AVC Продолжительность : 1 ч. 55 мин. Битрейт : 2 144 Кбит/сек Ширина : 768 пикселей Высота : 576 пикселей Соотношение сторон дисплея : 4:3 Режим частоты кадров : Постоянный Частота кадров : 24,000 кадра/сек Цветовое пространство : YUV Цветовая субдискретизация : 4:2:0 Битовая глубина : 8 бит Тип развёртки : Прогрессивная Бит/(Пиксели*Кадры) : 0.202 Размер потока : 1,73 Гбайт (85%) Библиотека кодирования : x264 core 164 r3156+57M NewTeam t_mod_New Параметры библиотеки кодирования : cabac=1 / ref=10 / deblock=1:-3:-3 / analyse=0x3:0x133 / me=umh / subme=10 / psy=1 / fade_compensate=0.00 / psy_rd=1.05:0.03 / mixed_ref=1 / me_range=32 / chroma_me=1 / trellis=2 / 8x8dct=1 / cqm=0 / deadzone=21,11 / fast_pskip=0 / chroma_qp_offset=-3 / threads=18 / lookahead_threads=3 / sliced_threads=0 / nr=0 / decimate=0 / interlaced=0 / bluray_compat=0 / constrained_intra=0 / fgo=0 / bframes=9 / b_pyramid=2 / b_adapt=2 / b_bias=0 / direct=3 / weightb=1 / open_gop=0 / weightp=2 / keyint=240 / keyint_min=24 / scenecut=40 / intra_refresh=0 / rc_lookahead=60 / rc=2pass / mbtree=0 / bitrate=2144 / ratetol=1.0 / qcomp=0.60 / qpmin=0:0:0 / qpmax=69:69:69 / qpstep=5 / cplxblur=20.0 / qblur=0.5 / vbv_maxrate=50000 / vbv_bufsize=62500 / nal_hrd=none / filler=0 / ip_ratio=1.35 / pb_ratio=1.25 / aq=1:1.00 / aq-sensitivity=10.00 / aq-factor=1.00:1.00:1.00 / aq2=0 / aq3=0 Язык : Английский По умолчанию : Да Принудительно : Нет Аудио Идентификатор : 2 Формат : AC-3 Формат/Информация : Audio Coding 3 Коммерческое название : Dolby Digital Идентификатор кодека : A_AC3 Продолжительность : 1 ч. 55 мин. Вид битрейта : Постоянный Битрейт : 384 Кбит/сек Канал(-ы) : 6 каналов Расположение каналов : L R C LFE Ls Rs Частота дискретизации : 48,0 КГц Частота кадров : 31,250 кадров/сек (1536 SPF) Метод сжатия : С потерями Размер потока : 318 Мбайт (15%) Заголовок : MVO - Jaskier Язык : Русский Вид сервиса : Complete Main По умолчанию : Да Принудительно : Нет Нормализация звука речи : -31 dB cmixlev : -4.5 dB surmixlev : -6 dB dialnorm_Average : -31 dB dialnorm_Minimum : -31 dB dialnorm_Maximum : -31 dB Текст Идентификатор : 3 Формат : UTF-8 Идентификатор кодека : S_TEXT/UTF8 Идентификатор кодека/Информация : UTF-8 Plain Text Продолжительность : 1 ч. 52 мин. Битрейт : 84 бит/сек Частота кадров : 0,290 кадр/сек Число элементов : 1963 Размер потока : 70,2 КиБ (0%) Заголовок : Язык : Английский По умолчанию : Нет Принудительно : Нет Меню 00:00:00.000 : en:第 01 章 00:07:48.458 : en:第 02 章 00:23:37.208 : en:第 03 章 00:34:24.708 : en:第 04 章 00:43:48.666 : en:第 05 章 00:51:48.166 : en:第 06 章 01:00:54.833 : en:第 07 章 01:11:59.375 : en:第 08 章 01:23:21.416 : en:第 09 章 01:33:31.875 : en:第 10 章 01:44:11.000 : en:第 11 章 01:53:53.541 : en:第 12 章

Всего файлов в раздаче: 1 
The.Goldman.Case.2023.BDRip-AVC_от New-Team_by_JNS82.mkv2.05 GB

Похожие раздачи по запросу - Дело
Вчера magnet Мосгаз Дело №10 Метроном [S10] (2024) WEBRip от New-Team 3.65 GB ↑ 0 ↓ 0
Вчера magnet Мосгаз Дело №10 Метроном [S10] (2024) WEBRip-AVC от New-Team 6.54 GB ↑ 0 ↓ 0
2024-05-20 magnet Дело Асунты / El caso Asunta [S01] (2024) WEBRip 1080p | ViruseProject 11.15 GB ↑ 0 ↓ 2
2024-05-20 magnet Дело Асунты / El caso Asunta [S01] (2024) WEBRip | ViruseProject 3.63 GB ↑ 0 ↓ 0
2024-05-19 magnet Мосгаз Дело №9 Последнее дело Черкасова [S09] (2023) WEBRip-AVC от New-Team 6.53 GB ↑ 0 ↓ 0
2024-05-19 magnet Мосгаз Дело №9 Последнее дело Черкасова [S09] (2023) WEBRip от New-Team 3.65 GB ↑ 0 ↓ 0
2024-05-16 magnet Мосгаз. Дело №10: Метроном [S10] (2024) WEBRip от Files-x 5.00 GB ↑ 0 ↓ 0

Комментарии


Зарегистрируйтесь чтобы добавить комментарий
Торрент клиент
byTorrent - программа для загрузки торрент-файлов.

Скачать byTorrent.exe (1,5 МБ)

Скачать byTorrent.zip (0,6 МБ)

Поддержи torrent.by
российских рублей
(300 российских рублей это 4$)

Обратная связь rss

End game ©