↑↓torrent.by
Поиск
Логин:  Регистрация
Пароль:

Марк и Джефф спасают мир / Jeff Panacloc: À la poursuite de Jean-Marc (2023) BDRip от New-Team | P

download Скачать торрент-файл   magnet Магнитная ссылка Размер: 1.46 GB Добавлен: 2024-04-23 05:00
Пиры будут получены из сети DHT
Последний сидер был замечен 2024-05-02 17:53
Марк и Джефф спасают мир / Jeff Panacloc: À la poursuite de Jean-Marc Год выпуска: 2023 Выпущено: Франция / 74 films, Canal+ , Ciné, M6, M6 Films, SND, W9 Жанр: Комедия Режиссер: Пьер-Франсуа Мартен-Лаваль / Pierre-François Martin-Laval В ролях: Джефф Панаклок, Клод Перрон, Венсан Деньяр, Патрик Лигарде, Тифен Давьо, Сара Фитри, Малик Фрика, Николя Марье, Шанталь Ладезу, Джералдин Лапалюс О фильме: Джефф почти что женат. Для полного счастья не хватает только благословения любимой бабули, живущей на другом конце страны. Но путь к ней внезапно преграждают люди в черном. Недавно из секретной лаборатории сбежал опасный преступник — плюшевая обезьянка Марк. И на ее поиски брошены лучшие агенты. Джефф и Марк находят друг друга и отправляются в самое опасное приключения в своей жизни. Ведь нет ничего страшнее, чем оставить невесту без праздника. Продолжительность: 01:29:17 Перевод: Профессиональный (многоголосый, закадровый) | MOYGOLOS Субтитры: Русские (full), Раздача от: Автор релиза: JNS82. Формат: AVI Качество: BDRip | Jeff.Panacloc.À.La.Poursuite.De.Jean-Marc.2023.VOF.1080p.BluRay.REMUX.AVC.DTS.HDMA.5.1-Lynx Видео: 720x304 (2.35:1), 24,000 fps, XviD MPEG-4 ~ 1889 kbps avg, 0.360 bit/pixel, build 74 Аудио: 48 kHz, AC3 Dolby Digital, 3/2 (L,C,R,l,r) + LFE ch, ~ 448 kbps | RUS |
[+] MediaInfoОбщее Полное имя : D:TorrentsJeff.Panacloc.À.La.Poursuite.De.Jean-Marc.2023.BDRip_от New-Team_by_JNS82Jeff.Panacloc.À.La.Poursuite.De.Jean-Marc.2023.BDRip_от New-Team_by_JNS82.avi Формат : AVI Формат/Информация : Audio Video Interleave Настройки формата : WaveFormatEx Размер файла : 1,46 Гбайт Продолжительность : 1 ч. 29 мин. Общий битрейт : 2 346 Кбит/сек Частота кадров : 24,000 кадра/сек Программа кодирования : VirtualDubMod 1.5.10.2 (build 2540/release) Библиотека кодирования : VirtualDubMod build 2540/release Видео Идентификатор : 0 Формат : MPEG-4 Visual Профиль формата : Advanced Simple@L5 Настройки формата : BVOP1 / Custom Matrix Параметр BVOP формата : 1 Параметр QPel формата : Нет Параметр GMC формата : Без точки перехода Параметр Matrix формата : Выборочная Идентификатор кодека : XVID Идентификатор кодека/Подсказка : XviD Продолжительность : 1 ч. 29 мин. Битрейт : 1 889 Кбит/сек Ширина : 720 пикселей Высота : 304 пикселя Соотношение сторон дисплея : 2,35:1 Частота кадров : 24,000 кадра/сек Цветовое пространство : YUV Цветовая субдискретизация : 4:2:0 Битовая глубина : 8 бит Тип развёртки : Прогрессивная Метод сжатия : С потерями Бит/(Пиксели*Кадры) : 0.360 Размер потока : 1,18 Гбайт (81%) Библиотека кодирования : XviD 74 Аудио Идентификатор : 1 Формат : AC-3 Формат/Информация : Audio Coding 3 Коммерческое название : Dolby Digital Идентификатор кодека : 2000 Продолжительность : 1 ч. 29 мин. Вид битрейта : Постоянный Битрейт : 448 Кбит/сек Канал(-ы) : 6 каналов Расположение каналов : L R C LFE Ls Rs Частота дискретизации : 48,0 КГц Частота кадров : 31,250 кадров/сек (1536 SPF) Метод сжатия : С потерями Размер потока : 286 Мбайт (19%) Выравнивание : Разделение по промежуткам Чередование, продолжительность : 42 мс. (1,00 видеокадр) Чередование, продолжительность пред.загр : 500 мс. Вид сервиса : Complete Main Нормализация звука речи : -28 dB compr : -0.28 dB cmixlev : -3.0 dB surmixlev : -3 dB dialnorm_Average : -28 dB dialnorm_Minimum : -28 dB dialnorm_Maximum : -28 dB

Всего файлов в раздаче: 2 
Jeff.Panacloc.À.La.Poursuite.De.Jean-Marc.2023.BDRip_от New-Team_by_JNS82.avi1.46 GB
Jeff.Panacloc.À.La.Poursuite.De.Jean-Marc.2023.BDRip_от New-Team_by_JNS82_[rus].srt133.61 kB

Похожие раздачи по запросу - Марк
2024-04-23 magnet Марк и Джефф спасают мир / Jeff Panacloc: À la poursuite de Jean-Marc (2023) BDRip 1080p от ExKinoRay | P, P1 7.31 GB ↑ 0 ↓ 0
2024-04-22 magnet Марк и Джефф спасают мир / Jeff Panacloc: À la poursuite de Jean-Marc (2023) BDRip-AVC от DoMiNo & селезень | P, P1 1.46 GB ↑ 0 ↓ 0
2024-04-22 magnet Марк и Джефф спасают мир / Jeff Panacloc: À la poursuite de Jean-Marc (2023) BDRip 720p от DoMiNo & селезень | P, P1 3.69 GB ↑ 0 ↓ 0
2024-04-22 magnet Марк и Джефф спасают мир / Jeff Panacloc: À la poursuite de Jean-Marc (2023) WEB-DL 1080p от ExKinoRay | P, P1 4.85 GB ↑ 0 ↓ 0
2024-04-22 magnet Марк и Джефф спасают мир / Jeff Panacloc: À la poursuite de Jean-Marc (2023) WEB-DL-HEVC 2160p от ExKinoRay | 4K | SDR | P, P1 8.13 GB ↑ 0 ↓ 0
2024-03-02 magnet Ларри Гоник, Марк Уилис - Генетика. Краткий курс в комиксах (2023) PDF 21.97 MB ↑ 0 ↓ 0
2021-09-11 magnet Милнер Марк - Работы по дереву. Лестницы от А до Я. Исчерпывающее руководство (2017) PDF 24.03 MB ↑ 0 ↓ 0

Комментарии


Зарегистрируйтесь чтобы добавить комментарий
Торрент клиент
byTorrent - программа для загрузки торрент-файлов.

Скачать byTorrent.exe (1,5 МБ)

Скачать byTorrent.zip (0,6 МБ)

Поддержи torrent.by
российских рублей
(300 российских рублей это 4$)

Обратная связь rss

End game ©