↑↓torrent.by
Поиск
Логин:  Регистрация
Пароль:

Код 8: Часть 2 / Code 8: Part II (2024) WEB-DL 2160p | 4K | SDR | D, P, P2, A

download Скачать торрент-файл   magnet Магнитная ссылка Размер: 14.70 GB Раздают: 1 Качают: 2 Добавлен: 2024-04-23 05:00
Пиры будут получены из сети DHT
Последний сидер был замечен сегодня в 12:25
Информация о фильме Название: Код 8: Часть 2 Оригинальное название: Code 8: Part II Год выхода: 2024 Жанр: Фантастика, боевик, драма Режиссер: Джефф Чан В ролях: Робби Амелл, Стивен Амелл, Алекс Маллари мл., Сирена Гуламгаус, Аарон Абрамс, Мо Жюди-Ламур, Акиэль Жюльен, Натали Ликонти, Ннека Эллиот, Сэмми Азеро, Джин Юн, Альтаир Винсент, Серена Пармар, Джейн Моффат, Джессика Аллен О фильме: Люди со сверхспособностями всё так же подвергаются дискриминации и вынуждены зарабатывать нелегально, чтобы сводить концы с концами. Обладающая необычной формой телекинеза девочка Павани становится невольной свидетельницей убийства старшего брата робопсом — одной из «безопасных» для людей машин, недавно поступивших на вооружение полиции. Спасаясь от коррумпированных копов, Павани встречает Коннора, который только что вышел после пятилетней отсидки. Страна: Канада , США Студия: Collective Pictures, XYZ Films Продолжительность: 01:40:27 Перевод 1: Дублированный (неофициальный) | TVShows Перевод 2: Профессиональный (многоголосый, закадровый) | Red Head Sound Перевод 3: Профессиональный (двухголосый, закадровый) | ViruseProject Перевод 4: Авторский (одноголосый, закадровый) | Д. Есарев 18+ Файл Формат: MKV Качество: WEB-DL 2160p Видео: MPEG-H HEVC, 3840x2160, 24.000 fps, 17.7 Mbps Аудио 1: AC3, 5.1 ch, 48.0 kHz, 384 kbps | DUB, TVShows Аудио 2: AC3, 2.0 ch, 48.0 kHz, 192 kbps | MVO, Red Head Sound Аудио 3: AC3, 5.1 ch, 48.0 kHz, 640 kbps | DVO, ViruseProject Аудио 4: AC3, 5.1 ch, 48.0 kHz, 640 kbps | AVO, Есарев Аудио 5: E-AC3, 5.1 ch, 48.0 kHz, 640 kbps | DUB, Le Doyen Аудио 6: E-AC3 JOC, 5.1 ch, 48.0 kHz, 768 kbps | Original Субтитры: Русские (Forced, Full), украинские, английские
[+] Скриншоты
[+] Инфо-файлИсточник: Code.8.Part.II.2024.2160p.NF.WEB-DL.DDP5.1.Atmos.H.265-HHWEB General Unique ID : 233343952571180552946101386171089624229 (0xAF8C691A734DC45285D9A6BABD771CA5) Complete name : Code.8.Part.II.2024.NF.WEB-DL.2160p.mkv Format : Matroska Format version : Version 4 File size : 14.7 GiB Duration : 1 h 40 min Overall bit rate : 20.9 Mb/s Encoded date : UTC 2024-04-22 13:24:46 Writing application : mkvmerge v7.3.0 ('Nouages') 64bit built on Oct 22 2014 18:53:34 Writing library : libebml v1.3.0 + libmatroska v1.4.1 Video ID : 1 Format : HEVC Format/Info : High Efficiency Video Coding Format profile : Main 10@L5@Main Codec ID : V_MPEGH/ISO/HEVC Duration : 1 h 40 min Bit rate : 17.7 Mb/s Width : 3 840 pixels Height : 2 160 pixels Display aspect ratio : 16:9 Frame rate mode : Constant Frame rate : 24.000 FPS Color space : YUV Chroma subsampling : 4:2:0 Bit depth : 10 bits Bits/(Pixel*Frame) : 0.089 Stream size : 12.4 GiB (84%) Language : English Default : Yes Forced : No Color range : Limited Color primaries : BT.709 Transfer characteristics : BT.709 Matrix coefficients : BT.709 Audio #1 ID : 2 Format : AC-3 Format/Info : Audio Coding 3 Commercial name : Dolby Digital Codec ID : A_AC3 Duration : 1 h 40 min Bit rate mode : Constant Bit rate : 384 kb/s Channel(s) : 6 channels Channel layout : L R C LFE Ls Rs Sampling rate : 48.0 kHz Frame rate : 31.250 FPS (1536 SPF) Compression mode : Lossy Stream size : 276 MiB (2%) Title : DUB (TVShows) Language : Russian Service kind : Complete Main Default : Yes Forced : No Audio #2 ID : 3 Format : AC-3 Format/Info : Audio Coding 3 Commercial name : Dolby Digital Codec ID : A_AC3 Duration : 1 h 40 min Bit rate mode : Constant Bit rate : 192 kb/s Channel(s) : 2 channels Channel layout : L R Sampling rate : 48.0 kHz Frame rate : 31.250 FPS (1536 SPF) Compression mode : Lossy Stream size : 138 MiB (1%) Title : MVO (Red Head Sound) Language : Russian Service kind : Complete Main Default : No Forced : No Audio #3 ID : 4 Format : AC-3 Format/Info : Audio Coding 3 Commercial name : Dolby Digital Codec ID : A_AC3 Duration : 1 h 40 min Bit rate mode : Constant Bit rate : 640 kb/s Channel(s) : 6 channels Channel layout : L R C LFE Ls Rs Sampling rate : 48.0 kHz Frame rate : 31.250 FPS (1536 SPF) Compression mode : Lossy Stream size : 460 MiB (3%) Title : DVO (ViruseProject) Language : Russian Service kind : Complete Main Default : No Forced : No Audio #4 ID : 5 Format : AC-3 Format/Info : Audio Coding 3 Commercial name : Dolby Digital Codec ID : A_AC3 Duration : 1 h 40 min Bit rate mode : Constant Bit rate : 640 kb/s Channel(s) : 6 channels Channel layout : L R C LFE Ls Rs Sampling rate : 48.0 kHz Frame rate : 31.250 FPS (1536 SPF) Compression mode : Lossy Stream size : 460 MiB (3%) Title : AVO (Есарев) Language : Russian Service kind : Complete Main Default : No Forced : No Audio #5 ID : 6 Format : E-AC-3 Format/Info : Enhanced AC-3 Commercial name : Dolby Digital Plus Codec ID : A_EAC3 Duration : 1 h 40 min Bit rate mode : Constant Bit rate : 640 kb/s Channel(s) : 6 channels Channel layout : L R C LFE Ls Rs Sampling rate : 48.0 kHz Frame rate : 31.250 FPS (1536 SPF) Compression mode : Lossy Stream size : 460 MiB (3%) Title : DUB (Le Doyen) Language : Ukrainian Service kind : Complete Main Default : No Forced : No Audio #6 ID : 7 Format : E-AC-3 JOC Format/Info : Enhanced AC-3 with Joint Object Coding Commercial name : Dolby Digital Plus with Dolby Atmos Codec ID : A_EAC3 Duration : 1 h 40 min Bit rate mode : Constant Bit rate : 768 kb/s Channel(s) : 6 channels Channel layout : L R C LFE Ls Rs Sampling rate : 48.0 kHz Frame rate : 31.250 FPS (1536 SPF) Compression mode : Lossy Stream size : 552 MiB (4%) Title : Original Language : English Service kind : Complete Main Default : No Forced : No Complexity index : 16 Number of dynamic objects : 15 Bed channel count : 1 channel Bed channel configuration : LFE Text #1 ID : 8 Format : UTF-8 Codec ID : S_TEXT/UTF8 Codec ID/Info : UTF-8 Plain Text Duration : 1 h 26 min Bit rate : 1 b/s Count of elements : 15 Stream size : 812 Bytes (0%) Title : Forced Language : Russian Default : No Forced : No Text #2 ID : 9 Format : UTF-8 Codec ID : S_TEXT/UTF8 Codec ID/Info : UTF-8 Plain Text Duration : 1 h 37 min Bit rate : 59 b/s Count of elements : 969 Stream size : 42.5 KiB (0%) Title : Full Language : Russian Default : No Forced : No Text #3 ID : 10 Format : UTF-8 Codec ID : S_TEXT/UTF8 Codec ID/Info : UTF-8 Plain Text Duration : 1 h 36 min Bit rate : 2 b/s Count of elements : 27 Stream size : 1.41 KiB (0%) Title : Forced Language : Ukrainian Default : No Forced : No Text #4 ID : 11 Format : UTF-8 Codec ID : S_TEXT/UTF8 Codec ID/Info : UTF-8 Plain Text Duration : 1 h 37 min Bit rate : 58 b/s Count of elements : 988 Stream size : 42.1 KiB (0%) Title : Full Language : Ukrainian Default : No Forced : No Text #5 ID : 12 Format : UTF-8 Codec ID : S_TEXT/UTF8 Codec ID/Info : UTF-8 Plain Text Duration : 1 h 30 min Bit rate : 45 b/s Count of elements : 984 Stream size : 30.4 KiB (0%) Title : Full Language : English Default : No Forced : No Text #6 ID : 13 Format : UTF-8 Codec ID : S_TEXT/UTF8 Codec ID/Info : UTF-8 Plain Text Duration : 1 h 31 min Bit rate : 57 b/s Count of elements : 1274 Stream size : 38.6 KiB (0%) Title : SDH Language : English Default : No Forced : No Menu 00:00:00.000 : en:Scene 1 01:31:39.450 : en:Credits

Всего файлов в раздаче: 1 
Code.8.Part.II.2024.NF.WEB-DL.2160p.mkv14.70 GB

Похожие раздачи по запросу - Код
2024-05-08 magnet Код Красный / Red Joan (2018) BDRip 720p от msltel | D, P 3.27 GB ↑ 0 ↓ 0
2024-04-25 magnet Код 8: Часть 2 / Код 8: Частина II / Code 8: Part II (2024) WEB-DL-HEVC 2160p | 4K | HDR | Dolby Vision Profile 8 | D | Netflix | UKR 9.17 GB ↑ 0 ↓ 0
2024-03-26 magnet Код 8: Часть 2 / Code 8: Part II (2024) WEB-DLRip от MegaPeer | D | TVShows 1.46 GB ↑ 0 ↓ 0
2024-03-10 magnet Код 8: Часть 2 / Code 8: Part II (2024) WEB-DLRip-AVC от DoMiNo & селезень | P, P2 | Red Head Sound, ViruseProject 1.54 GB ↑ 0 ↓ 0
2024-03-09 magnet Код 8: Часть 2 / Code 8: Part II (2024) WEB-DL 1080p от ExKinoRay | P | Red Head Sound 4.11 GB ↑ 6 ↓ 0
2024-03-01 magnet Код 8 / Code 8 (2019) BDRip-AVC от DoMiNo & селезень | iTunes 1.71 GB ↑ 0 ↓ 0
2024-03-01 magnet Код 8: Часть 2 / Code 8: Part II (2024) WEB-DL 1080p | ViruseProject 4.43 GB ↑ 0 ↓ 0

Комментарии


Зарегистрируйтесь чтобы добавить комментарий
Торрент клиент
byTorrent - программа для загрузки торрент-файлов.

Скачать byTorrent.exe (1,5 МБ)

Скачать byTorrent.zip (0,6 МБ)

Поддержи torrent.by
российских рублей
(300 российских рублей это 4$)

Обратная связь rss

End game ©