↑↓torrent.by
Поиск
Логин:  Регистрация
Пароль:

Тьма играет в куклы / Кукольная анимация / Stopmotion (2023) WEB-DLRip от New-Team | P2 | ViruseProject

download Скачать торрент-файл   magnet Магнитная ссылка Размер: 1.46 GB Добавлен: 2024-04-23 05:00
Пиры будут получены из сети DHT
Последний сидер был замечен 2024-04-29 08:11
Тьма играет в куклы / Кукольная анимация / Stopmotion Год выпуска: 2023 Выпущено: Великобритания / Blue Light, BFI Жанр: ужасы Режиссер: Роберт Морган / Robert Morgan В ролях: Эшлинг Франчози, Кэолинн Спринголл, Том Йорк, Стелла Гонет, Терика Уилсон-Рид, Бриджитта Рой, Алекс Фриборн, Джеймс Суонтон, Джеймс Харрис, Джаз Хатчинс О фильме: Элла — дочь легенды в мире кукольной анимации. Властная мать страдает от артрита и пытается закончить последний фильм руками дочери, но внезапно её разбивает инсульт. Элла переезжает в другую квартиру, где знакомится с соседской девочкой и по её истории начинает делать собственный фильм. Продолжительность: 01:33:38 Перевод: Профессиональный (двухголосый, закадровый) | ViruseProject Субтитры: Русские (forced, full (ViruseProject)), английские (SDH), Раздача от: Автор релиза: JNS82. Формат: AVI Качество: WEB-DLRip Видео: 720x304 (2.35:1), 23.976 fps, XviD MPEG-4 ~ 2035 kbps avg, 0.388 bit/pixel, build 73 Аудио: 48 kHz, AC3 Dolby Digital, 2/0 (L,R) ch, ~ 192 kbps | RUS |
[+] MediaInfoОбщее Полное имя : D:TorrentsStopmotion.2023.WEB-DLRip_от New-Team_by_JNS82Stopmotion.2023.WEB-DLRip_от New-Team_by_JNS82.avi Формат : AVI Формат/Информация : Audio Video Interleave Настройки формата : BitmapInfoHeader / WaveFormatEx Размер файла : 1,46 Гбайт Продолжительность : 1 ч. 33 мин. Общий битрейт : 2 237 Кбит/сек Частота кадров : 23,976 кадра/сек Программа кодирования : VirtualDubMod 1.5.10.2 (build 2540/release) Библиотека кодирования : VirtualDubMod build 2540/release Видео Идентификатор : 0 Формат : MPEG-4 Visual Профиль формата : Advanced Simple@L5 Настройки формата : BVOP1 / Custom Matrix Параметр BVOP формата : 1 Параметр QPel формата : Нет Параметр GMC формата : Без точки перехода Параметр Matrix формата : Выборочная Идентификатор кодека : XVID Идентификатор кодека/Подсказка : XviD Продолжительность : 1 ч. 33 мин. Битрейт : 2 035 Кбит/сек Ширина : 720 пикселей Высота : 304 пикселя Соотношение сторон дисплея : 2,35:1 Частота кадров : 23,976 (24000/1001) кадра/сек Цветовое пространство : YUV Цветовая субдискретизация : 4:2:0 Битовая глубина : 8 бит Тип развёртки : Прогрессивная Метод сжатия : С потерями Бит/(Пиксели*Кадры) : 0.388 Размер потока : 1,33 Гбайт (91%) Библиотека кодирования : XviD 73 Аудио Идентификатор : 1 Формат : AC-3 Формат/Информация : Audio Coding 3 Коммерческое название : Dolby Digital Идентификатор кодека : 2000 Продолжительность : 1 ч. 33 мин. Вид битрейта : Постоянный Битрейт : 192 Кбит/сек Канал(-ы) : 2 канала Расположение каналов : L R Частота дискретизации : 48,0 КГц Частота кадров : 31,250 кадров/сек (1536 SPF) Метод сжатия : С потерями Размер потока : 129 Мбайт (9%) Выравнивание : Разделение по промежуткам Чередование, продолжительность : 42 мс. (1,00 видеокадр) Чередование, продолжительность пред.загр : 500 мс. Вид сервиса : Complete Main Нормализация звука речи : -31 dB dialnorm_Average : -31 dB dialnorm_Minimum : -31 dB dialnorm_Maximum : -31 dB

Всего файлов в раздаче: 4 
Stopmotion.2023.WEB-DLRip_от New-Team_by_JNS82.avi1.46 GB
Stopmotion.2023.WEB-DLRip_от New-Team_by_JNS82_[eng].srt68.68 kB
Stopmotion.2023.WEB-DLRip_от New-Team_by_JNS82_forced_[rus].srt427.00 B
Stopmotion.2023.WEB-DLRip_от New-Team_by_JNS82_full_[rus].srt43.53 kB

Похожие раздачи по запросу - Тьма
2024-05-17 magnet Обитель зла: Бесконечная тьма / Resident Evil: Infinite Darkness [S01] (2021) WEB-DLRip-AVC | КПК | Jaskier 554.81 MB ↑ 0 ↓ 0
2024-05-17 magnet Тьма человеческая / Тьма человека / Darkness of Man (2024) WEB-DL 1080p от New-Team | P | TVShows 7.82 GB ↑ 0 ↓ 0
2024-05-17 magnet Тьма человеческая / Тьма человека / Darkness of Man (2024) WEB-DLRip от New-Team | P | TVShows 1.46 GB ↑ 0 ↓ 0
2024-05-17 magnet Тьма человеческая / Тьма человека / Darkness of Man (2024) WEB-DL 720p от селезень | P | TVShows 3.62 GB ↑ 0 ↓ 1
2024-05-10 magnet Тьма человеческая / Тьма человека / Darkness of Man (2024) WEB-DLRip от JNS82 | L 1.46 GB ↑ 0 ↓ 0
2024-05-10 magnet Тьма человеческая / Тьма человека / Darkness of Man (2024) WEB-DL 1080p от JNS82 | L 1К7.68 GB ↑ 0 ↓ 0
2024-04-22 magnet Кукольная анимация / Тьма играет в куклы / Stopmotion (2023) WEB-DL 1080p | ViruseProject 5.23 GB ↑ 0 ↓ 0

Комментарии


Зарегистрируйтесь чтобы добавить комментарий
Торрент клиент
byTorrent - программа для загрузки торрент-файлов.

Скачать byTorrent.exe (1,5 МБ)

Скачать byTorrent.zip (0,6 МБ)

Поддержи torrent.by
российских рублей
(300 российских рублей это 4$)

Обратная связь rss

End game ©