↑↓torrent.by
Поиск
Логин:  Регистрация
Пароль:

Tarja Turunen - What Lies Beneath [Special Edition, 24Bit, Hi-Res] (2010/2024) FLAC

download Скачать торрент-файл   magnet Магнитная ссылка Размер: 1.64 GB Добавлен: 2024-04-23 11:00
Пиры будут получены из сети DHT
Последний сидер был замечен 2024-04-26 19:22
Tarja Turunen - What Lies Beneath (2010) Special Edition, 2024, earMUSIC Жанр: Symphonic Metal, Gothic Metal Издание: earMUSIC Источник: ссылка Продолжительность: 02:25:54 Кодек: FLAC 24/44.1 Битрейт: Lossless|WEB-DL Тип рипа: tracks Треклист: 1. Anteroom of Death (4:45) 2. Until My Last Breath (4:26) 3. Naiad (7:09) 4. Dark Star (4:43) 5. Underneath (5:28) 6. Little Lies (4:38) 7. Still of the Night (6:36) 8. Rivers of Lust (4:25) 9. In for a Kill (4:41) 10. I Feel Immortal (4:42) 11. We Are (4:18) 12. Falling Awake (5:17) 13. The Archive of Lost Dreams (4:53) 14. Crimson Deep (7:35) 15. Dark Star (Tarja Lead Vocals Version) (4:42) 16. Montañas de Silencio (4:28) 17. If You Believe (6:55) 18. The Crying Moon (3:57) 19. Underneath (Orchestral Version) (5:03) 20. I Feel Immortal (Single Edit) (4:29) 21. Falling Awake - Jason Hook Solo (4:43) 22. Naiad (Instrumental Extended Version) (11:36) 23. Underneath (4:27) 24. If You Believe - Piano Version (4:14) 25. Falling Awake - Julián Barrett Solo (5:05) 26. Underneath - Radio Version (4:27) 27. I Feel Immortal - Radio Remix (4:32) 28. Until My Last Breath - Single Version (3:52)
[+] Отчёт Замер динамического диапазона (DR) : foobar2000 1.5.5 / Замер динамического диапазона (DR) 1.1.1 Дата отчёта: 2024-04-10 20:46:10 -------------------------------------------------------------------------------- Анализ: Tarja / What Lies Beneath (Special Edition 2024) -------------------------------------------------------------------------------- DR Пики RMS Продолжительность трека -------------------------------------------------------------------------------- DR5 -0.12 дБ -8.47 дБ 4:45 01-Anteroom of Death DR5 -0.12 дБ -6.48 дБ 4:26 02-Until My Last Breath DR6 -0.12 дБ -9.19 дБ 7:09 03-Naiad DR4 -0.12 дБ -6.10 дБ 4:43 04-Dark Star DR6 -0.12 дБ -9.91 дБ 5:28 05-Underneath DR5 -0.12 дБ -6.99 дБ 4:38 06-Little Lies DR5 -0.12 дБ -7.46 дБ 6:36 07-Still of the Night DR6 -0.12 дБ -9.68 дБ 4:25 08-Rivers of Lust DR5 -0.12 дБ -7.21 дБ 4:41 09-In for a Kill DR5 -0.12 дБ -8.36 дБ 4:42 10-I Feel Immortal DR4 -0.12 дБ -6.65 дБ 4:18 11-We Are DR6 -0.12 дБ -7.42 дБ 5:17 12-Falling Awake DR5 -0.12 дБ -9.84 дБ 4:53 13-The Archive of Lost Dreams DR5 -0.12 дБ -7.41 дБ 7:35 14-Crimson Deep DR4 -0.12 дБ -6.58 дБ 4:42 15-Dark Star (Tarja Lead Vocals Version) DR9 -0.54 дБ -13.74 дБ 4:28 16-Montañas de Silencio DR6 -0.12 дБ -9.32 дБ 6:55 17-If You Believe DR5 -0.12 дБ -6.34 дБ 3:57 18-The Crying Moon DR6 -0.12 дБ -9.54 дБ 5:03 19-Underneath (Orchestral Version) DR6 -0.12 дБ -8.66 дБ 4:29 20-I Feel Immortal (Single Edit) DR6 -0.12 дБ -7.52 дБ 4:43 21-Falling Awake - Jason Hook Solo DR8 -0.12 дБ -12.40 дБ 11:36 22-Naiad (Instrumental Extended Version) DR5 -0.12 дБ -8.65 дБ 4:27 23-Underneath DR10 -0.12 дБ -14.26 дБ 4:14 24-If You Believe - Piano Version DR6 -0.12 дБ -7.54 дБ 5:05 25-Falling Awake - Julián Barrett Solo DR5 -0.12 дБ -8.47 дБ 4:27 26-Underneath - Radio Version DR5 -0.12 дБ -7.67 дБ 4:32 27-I Feel Immortal - Radio Remix DR5 -0.12 дБ -6.54 дБ 3:52 28-Until My Last Breath - Single Version -------------------------------------------------------------------------------- Количество треков: 28 Реальные значения DR: DR6 Частота: 44100 Гц Каналов: 2 Разрядность: 24 Битрейт: 1710 кбит/с Кодек: FLAC ================================================================================

Всего файлов в раздаче: 30 
01. Anteroom of Death.flac55.71 MB
02. Until My Last Breath.flac54.35 MB
03. Naiad.flac81.27 MB
04. Dark Star.flac55.97 MB
05. Underneath.flac61.37 MB
06. Little Lies.flac55.20 MB
07. Still of the Night.flac79.37 MB
08. Rivers of Lust.flac49.56 MB
09. In for a Kill.flac54.94 MB
10. I Feel Immortal.flac54.50 MB
Показать все файлы

Похожие раздачи по запросу - Tarja
2024-04-15 magnet Tarja - What Lies Beneath [24-bit Hi-Res, Special Edition 2024] (2010/2024) FLAC 1.63 GB ↑ 0 ↓ 0

Комментарии


Зарегистрируйтесь чтобы добавить комментарий
Торрент клиент
byTorrent - программа для загрузки торрент-файлов.

Скачать byTorrent.exe (1,5 МБ)

Скачать byTorrent.zip (0,6 МБ)

Поддержи torrent.by
российских рублей
(300 российских рублей это 4$)

Обратная связь rss

End game ©