↑↓torrent.by
Поиск
Логин:  Регистрация
Пароль:

Страна мечты / Dreamland (2006) WEB-DL 1080p | P

download Скачать торрент-файл   magnet Магнитная ссылка Размер: 8.15 GB Добавлен: 2024-04-23 11:00
Пиры будут получены из сети DHT
Последний сидер был замечен 2024-05-11 03:32
Информация о фильме Название: Страна мечты Оригинальное название: Dreamland Год выхода: 2006 Жанр: Драма Режиссер: Джейсон Матцнер В ролях: Агнес Брукнер, Келли Гарнер, Джастин Лонг, Джон Корбетт, Джина Гершон, Брайан Клагман, Крис Малки, Люче Рэйнс, Олив Бюркер, Шерри Линетт О фильме: 18-летняя Одри живет со своим отцом в маленькой общине в Нью-Мексико. Хотя ей необходимо поступать в колледж, каждый день девушка проводит в заботах об отце. Несчастный не покидал родного дома с того момента, как умерла мать Одри. Летом после окончания школы мир юной девушки изменился навсегда: привлекательный молодой человек Моки поселился по соседству вместе со своей мамой Мэри. Зная, насколько Одри истосковалась по любви, ее отец просит парня пригласить дочь на свидание. Молодые люди начинают встречаться. Любовь меняет Одри навсегда. Страна: США Студия: Dreamland Motion Picture Company, Echo Lake Entertainment Продолжительность: 01:28:10 Перевод: Профессиональный (многоголосый, закадровый) | R5 Файл Формат: MKV Качество: WEB-DL 1080p Видео: MPEG-4 AVC, 1920x1080, 23.976 fps, 12.4 Mbps Аудио 1: Russian: AC3, 48.0 KHz, 2.0 ch, 192 Kbps | MVO, R5 Аудио 2: English: E-AC3, 48.0 KHz, 5.1 ch, 640 Kbps | Original Субтитры: Английские (Full, SDH)
[+] Скриншоты
[+] Инфо-файлGeneral Unique ID : 214323133533282349258739334519996327500 (0xA13D22520FD8D719D181D8E6FF78A64C) Complete name : Dreamland.2006.1080p.AMZN.WEB-DL.DDP5.1.x264-ABM.mkv Format : Matroska Format version : Version 4 File size : 8.15 GiB Duration : 1 h 28 min Overall bit rate mode : Variable Overall bit rate : 13.2 Mb/s Movie name : Dreamland.2006.1080p.AMZN.WEB-DL.DDP5.1.x264-ABM Encoded date : UTC 2024-04-22 09:48:00 Writing application : mkvmerge v56.0.0 ('Strasbourg / St. Denis') 64-bit Writing library : libebml v1.4.2 + libmatroska v1.6.4 Video ID : 1 Format : AVC Format/Info : Advanced Video Codec Format profile : High@L4 Format settings : CABAC / 4 Ref Frames Format settings, CABAC : Yes Format settings, Reference : 4 frames Codec ID : V_MPEG4/ISO/AVC Duration : 1 h 28 min Bit rate mode : Variable Bit rate : 12.4 Mb/s Maximum bit rate : 15.0 Mb/s Width : 1 920 pixels Height : 1 080 pixels Display aspect ratio : 16:9 Frame rate mode : Constant Frame rate : 23.976 (24000/1001) FPS Color space : YUV Chroma subsampling : 4:2:0 Bit depth : 8 bits Scan type : Progressive Bits/(Pixel*Frame) : 0.250 Stream size : 7.64 GiB (94%) Writing library : x264 core 148 r2623 d5b2374 Encoding settings : cabac=1 / ref=4 / deblock=1:-1:-1 / analyse=0x3:0x133 / me=umh / subme=9 / psy=1 / psy_rd=1.00:0.15 / mixed_ref=1 / me_range=24 / chroma_me=1 / trellis=2 / 8x8dct=1 / cqm=0 / deadzone=21,11 / fast_pskip=1 / chroma_qp_offset=-3 / threads=34 / lookahead_threads=5 / sliced_threads=0 / nr=150 / decimate=1 / interlaced=0 / bluray_compat=0 / constrained_intra=0 / bframes=8 / b_pyramid=2 / b_adapt=2 / b_bias=0 / direct=3 / weightb=1 / open_gop=0 / weightp=2 / keyint=120 / keyint_min=61 / scenecut=0 / intra_refresh=0 / rc_lookahead=120 / rc=crf / mbtree=1 / crf=18.0 / qcomp=0.60 / qpmin=0 / qpmax=69 / qpstep=4 / vbv_maxrate=15000 / vbv_bufsize=31250 / crf_max=0.0 / nal_hrd=vbr / filler=0 / ip_ratio=1.40 / aq=3:1.00 Language : English Default : Yes Forced : No Color range : Limited Color primaries : BT.709 Transfer characteristics : BT.709 Matrix coefficients : BT.709 Audio #1 ID : 2 Format : AC-3 Format/Info : Audio Coding 3 Commercial name : Dolby Digital Codec ID : A_AC3 Duration : 1 h 28 min Bit rate mode : Constant Bit rate : 192 kb/s Channel(s) : 2 channels Channel layout : L R Sampling rate : 48.0 kHz Frame rate : 31.250 FPS (1536 SPF) Compression mode : Lossy Stream size : 121 MiB (1%) Title : MVO Language : Russian Service kind : Complete Main Default : Yes Forced : No Audio #2 ID : 3 Format : E-AC-3 Format/Info : Enhanced AC-3 Commercial name : Dolby Digital Plus Codec ID : A_EAC3 Duration : 1 h 28 min Bit rate mode : Constant Bit rate : 640 kb/s Channel(s) : 6 channels Channel layout : L R C LFE Ls Rs Sampling rate : 48.0 kHz Frame rate : 31.250 FPS (1536 SPF) Compression mode : Lossy Stream size : 404 MiB (5%) Language : English Service kind : Complete Main Default : No Forced : No Text #1 ID : 4 Format : UTF-8 Codec ID : S_TEXT/UTF8 Codec ID/Info : UTF-8 Plain Text Duration : 1 h 21 min Bit rate : 54 b/s Count of elements : 1094 Stream size : 32.8 KiB (0%) Language : English Default : No Forced : No Text #2 ID : 5 Format : UTF-8 Codec ID : S_TEXT/UTF8 Codec ID/Info : UTF-8 Plain Text Duration : 1 h 21 min Bit rate : 54 b/s Count of elements : 1094 Stream size : 32.7 KiB (0%) Title : SDH Language : English Default : No Forced : No

Всего файлов в раздаче: 1 
Dreamland.2006.1080p.AMZN.WEB-DL.DDP5.1.x264-ABM.mkv8.15 GB

Похожие раздачи по запросу - Страна
Вчера magnet Страна пожаров / Fire Country [S02] (2024) WEB-DL 1080p | TVShows 27.42 GB ↑ 0 ↓ 0
2022-11-23 magnet Страна снов / Slumberland (2022) WEB-DLRip от MegaPeer | Jaskier 1.46 GB ↑ 0 ↓ 0
2022-11-19 magnet Страна снов / Slumberland (2022) WEB-DLRip от Kerob | L2 1.39 GB ↑ 0 ↓ 0
2022-05-02 magnet Аркадий и Борис Стругацкие - Страна багровых туч (2021) MP3 333.40 MB ↑ 0 ↓ 0

Комментарии


Зарегистрируйтесь чтобы добавить комментарий
Торрент клиент
byTorrent - программа для загрузки торрент-файлов.

Скачать byTorrent.exe (1,5 МБ)

Скачать byTorrent.zip (0,6 МБ)

Поддержи torrent.by
российских рублей
(300 российских рублей это 4$)

Обратная связь rss

End game ©