↑↓torrent.by
Поиск
Логин:  Регистрация
Пароль:

Одно плохое яблоко. Расследование Ханны Свенсен / One Bad Apple: A Hannah Swensen Mystery (2024) WEB-DLRip от New-Team | P2 | ViruseProject

download Скачать торрент-файл   magnet Магнитная ссылка Размер: 1.46 GB Добавлен: 2024-04-23 11:00
Пиры будут получены из сети DHT
Последний сидер был замечен 2024-05-19 18:39
Одно плохое яблоко. Расследование Ханны Свенсен / One Bad Apple: A Hannah Swensen Mystery Год выпуска: 2024 Выпущено: Канада / Lighthouse Pictures, Canadian Film or Video Production Tax Credit, Province of British Columbia Film Incentive BC Жанр: Детектив, триллер Режиссер: Шеннон Коли / Shannon Kohli В ролях: Тесс Аткинс, Лиза Дурупт, Себастьян Гривз, Гэбриел Хоган, Хилари Джардин, Барбара Нивен, Оливер Райс, Матрея Скаррвинер, Элисон Суини О фильме: Репутация хозяйки пекарни Ханны Свенсон так выросла, что её приглашают преподавать в техникум города Лэйк-Эден. И среди преподавательского состава находится разведённый учитель, который аппетитной блондиночкой начинает интересоваться больше, чем приготовленными ею вкусняшками. И кто бы знал, куда заведёт этот роман, вот только он обрывается, не успев начаться. В колледже происходит убийство, и Ханна вспоминает о втором своём увлечении —расследовании загадочных преступлений. Правда, на этот раз и она сама попадает в число подозреваемых, причём, даже в глазах родной матери, которая и сама слишком уж увлеклась ролью частного детектива. Ещё одна экранизация кулинарно-детективных романов Джоанны Флюк. На сей раз за сценарную часть отвечала исполнительница главной роли Элисон Суинни и это заметно сказалось на балансе детективных и мелодраматических сюжетных линий. Эту часть бесконечных похождений обаятельной кулинарши-расследовательницы смотреть будет интересно, как поклонникам детективов, так и любителям романтических историй. Продолжительность: 01:24:19 Перевод: Профессиональный (двухголосый, закадровый) | ViruseProject Субтитры: Русские (forced, full (ViruseProject)), английские (full), Раздача от: Автор релиза: JNS82. Формат: AVI Качество: WEB-DLRip Видео: 704x400 (16:9), 23.976 fps, XviD MPEG-4 ~ 2281 kbps avg, 0.338 bit/pixel, build 73 Аудио: 48 kHz, AC3 Dolby Digital, 2/0 (L,R) ch, ~ 192 kbps | RUS |
[+] MediaInfoОбщее Полное имя : D:TorrentsOne.Bad.Apple.A.Hannah.Swensen.Mystery.2024.WEB-DLRip_от New-TeamOne.Bad.Apple.A.Hannah.Swensen.Mystery.2024.WEB-DLRip_от New-Team.avi Формат : AVI Формат/Информация : Audio Video Interleave Настройки формата : BitmapInfoHeader / WaveFormatEx Размер файла : 1,46 Гбайт Продолжительность : 1 ч. 24 мин. Общий битрейт : 2 483 Кбит/сек Частота кадров : 23,976 кадра/сек Программа кодирования : VirtualDubMod 1.5.10.2 (build 2540/release) Библиотека кодирования : VirtualDubMod build 2540/release Видео Идентификатор : 0 Формат : MPEG-4 Visual Профиль формата : Advanced Simple@L5 Настройки формата : BVOP1 / Custom Matrix Параметр BVOP формата : 1 Параметр QPel формата : Нет Параметр GMC формата : Без точки перехода Параметр Matrix формата : Выборочная Идентификатор кодека : XVID Идентификатор кодека/Подсказка : XviD Продолжительность : 1 ч. 24 мин. Битрейт : 2 281 Кбит/сек Ширина : 704 пикселя Высота : 400 пикселей Соотношение сторон дисплея : 16:9 Частота кадров : 23,976 (24000/1001) кадра/сек Цветовое пространство : YUV Цветовая субдискретизация : 4:2:0 Битовая глубина : 8 бит Тип развёртки : Прогрессивная Метод сжатия : С потерями Бит/(Пиксели*Кадры) : 0.338 Размер потока : 1,34 Гбайт (92%) Библиотека кодирования : XviD 73 Аудио Идентификатор : 1 Формат : AC-3 Формат/Информация : Audio Coding 3 Коммерческое название : Dolby Digital Идентификатор кодека : 2000 Продолжительность : 1 ч. 24 мин. Вид битрейта : Постоянный Битрейт : 192 Кбит/сек Канал(-ы) : 2 канала Расположение каналов : L R Частота дискретизации : 48,0 КГц Частота кадров : 31,250 кадров/сек (1536 SPF) Метод сжатия : С потерями Размер потока : 116 Мбайт (8%) Выравнивание : Разделение по промежуткам Чередование, продолжительность : 42 мс. (1,00 видеокадр) Чередование, продолжительность пред.загр : 500 мс. Вид сервиса : Complete Main Нормализация звука речи : -31 dB dialnorm_Average : -31 dB dialnorm_Minimum : -31 dB dialnorm_Maximum : -31 dB

Всего файлов в раздаче: 4 
One.Bad.Apple.A.Hannah.Swensen.Mystery.2024.WEB-DLRip_от New-Team.avi1.46 GB
One.Bad.Apple.A.Hannah.Swensen.Mystery.2024.WEB-DLRip_от New-Team_[eng].srt143.25 kB
One.Bad.Apple.A.Hannah.Swensen.Mystery.2024.WEB-DLRip_от New-Team_forced_[rus].srt2.32 kB
One.Bad.Apple.A.Hannah.Swensen.Mystery.2024.WEB-DLRip_от New-Team_full_[rus].srt192.31 kB

Похожие раздачи по запросу - Одно
2024-04-25 magnet Одно плохое яблоко. Расследование Ханны Свенсен / One Bad Apple: A Hannah Swensen Mystery (2024) WEB-DLRip от ExKinoRay | P2 742.21 MB ↑ 0 ↓ 0
2024-04-23 magnet Одно плохое яблоко. Расследование Ханны Свенсен / One Bad Apple: A Hannah Swensen Mystery (2024) WEB-DL 1080p | ViruseProject 4.93 GB ↑ 0 ↓ 1

Кто качает (только для создателя раздачи и модераторов): Локальные пиры отсутствуют

Комментарии


Зарегистрируйтесь чтобы добавить комментарий
Торрент клиент
byTorrent - программа для загрузки торрент-файлов.

Скачать byTorrent.exe (1,5 МБ)

Скачать byTorrent.zip (0,6 МБ)

Поддержи torrent.by
российских рублей
(300 российских рублей это 4$)

Обратная связь rss

End game ©