↑↓torrent.by
Поиск
Логин:  Регистрация
Пароль:

Горький 53 / Серии: 1-8 из 8 [2023, детектив, криминал, WEBRip-AVC] от Aleksan55

download Скачать торрент-файл   magnet Магнитная ссылка Размер: 5.19 GB Добавлен: aleksan55 2024-04-23 16:01
Пиры будут получены из сети DHT
Последний сидер был замечен 2024-05-18 21:18
Горький 53
Год выпуска: 2023 Страна: Россия | ТРОМЕДИА Жанр: детектив, криминал Продолжительность: ~ 00:49:00 Субтитры: нет
Режиссёр: Сергей Коротаев
В ролях: Алексей Барабаш, Андрей Фролов, Екатерина Климова, Катерина Шпица, Александр Балуев, Михаил Евланов, Алексей Макаров, Александр Семчев, Анатолий Журавлёв, Любовь Константинова, Александр Дуденков, Юрий Миронцев, Тимур Базинский, Никита Тезов, Игорь Новосёлов, Руслан Ягудин, Владимир Бирюков, Ирина Ефремова, Илья Лейбин, Александр Рапопорт
Описание: 1953 год. Из-за массовой амнистии в СССР напряженная криминальная обстановка. В это же время в родной город Горький возвращается освободившийся из тюрьмы Иван Астафьев, бывший командир разведвзвода. И тут же становится жертвой нападения бандитов, а затем и ложного обвинения в избиении нападавших. Из беды выручает довоенный знакомый Ивана — капитан Шведов, который устраивает его на работу в спортивное общество «Динамо» обучать милиционеров рукопашному бою.

Качество: WEBRip-AVC Формат: MKV Видео кодек: H.264 Аудио кодек: AAC Видео: MPEG-4 AVC Video(х264),1024x428, 25fps,1600 Kbps,bit/pixel 0.146 Аудио : AC3 48,0Hz, stereo, 384 kbps,6 ch
[+] "MediaInfo" Общее Уникальный идентификатор : 35477221011115301219162210879210193732 (0x1AB0AA0AE7A57FAB92083CAEE9B30344) Полное имя : D:\Горький 53\01 серия_Горький 53_rip by_Aleksan55.mkv Формат : Matroska Версия формата : Version 4 Размер файла : 700 Мбайт Продолжительность : 49 м. 13 с. Общий поток : 1987 Кбит/сек Программа кодирования : XviD4PSP 8.0.126 Библиотека кодирования : Lavf59.16.100 ErrorDetectionType : Per level 1 ENCODING_INFO : MATROSKA,WEBM > MKV Пользовательский Видео Идентификатор : 1 Формат : AVC Формат/Информация : Advanced Video Codec Профиль формата : High@L4.1 Настройки формата : CABAC / 9 Ref Frames Параметр CABAC формата : Да Параметр RefFrames формата : 9 кадров Идентификатор кодека : V_MPEG4/ISO/AVC Продолжительность : 49 м. 13 с. Битрейт : 1600 Кбит/сек Ширина : 1024 пикселя Высота : 428 пикселей Соотношение сторон : 2,40:1 Режим частоты кадров : Постоянный Частота кадров : 25,000 кадров/сек Цветовое пространство : YUV Субдискретизация насыщенности : 4:2:0 Битовая глубина : 8 бит Тип развёртки : Прогрессивная Бит/(Пиксели*Кадры) : 0.146 Размер потока : 551 Мбайт (79%) Библиотека кодирования : x264 core 163 r3060 5db6aa6 Настройки программы : cabac=1 / ref=9 / deblock=1:-2:-2 / analyse=0x3:0x133 / me=umh / subme=9 / psy=1 / psy_rd=1.00:0.00 / mixed_ref=1 / me_range=9 / chroma_me=1 / trellis=1 / 8x8dct=1 / cqm=0 / deadzone=21,11 / fast_pskip=1 / chroma_qp_offset=-2 / threads=18 / lookahead_threads=3 / sliced_threads=0 / nr=0 / decimate=1 / interlaced=0 / bluray_compat=0 / constrained_intra=0 / bframes=9 / b_pyramid=2 / b_adapt=2 / b_bias=0 / direct=1 / weightb=1 / open_gop=0 / weightp=2 / keyint=250 / keyint_min=25 / scenecut=40 / intra_refresh=0 / rc_lookahead=40 / rc=2pass / mbtree=1 / bitrate=1600 / ratetol=1.0 / qcomp=0.60 / qpmin=0 / qpmax=69 / qpstep=4 / cplxblur=20.0 / qblur=0.5 / ip_ratio=1.40 / aq=1:1.00 Язык : Russian Default : Да Forced : Нет ENCODING_INFO : H264 > X264 VBR-2P 1600kbps Medium Аудио Идентификатор : 2 Формат : AC-3 Формат/Информация : Audio Coding 3 Коммерческое название : Dolby Digital Идентификатор кодека : A_AC3 Продолжительность : 49 м. 13 с. Вид битрейта : Постоянный Битрейт : 384 Кбит/сек Каналы : 6 каналов ChannelLayout : L R C LFE Ls Rs Частота : 48,0 КГц Частота кадров : 31,250 кадров/сек (1536 SPF) Метод сжатия : С потерями Размер потока : 135 Мбайт (19%) Язык : Russian ServiceKind/String : Complete Main Default : Да Forced : Нет ENCODING_INFO : AC3 > COPY Безопасное
[+] "Скриншоты"

Всего файлов в раздаче: 8 
01 серия_Горький 53_rip by_Aleksan55.mkv699.83 MB
02 серия_Горький 53_rip by_Aleksan55.mkv739.96 MB
03 серия_Горький 53_rip by_Aleksan55.mkv652.76 MB
04 серия_Горький 53_rip by_Aleksan55.mkv652.69 MB
05 серия_Горький 53_rip by_Aleksan55.mkv637.56 MB
06 серия_Горький 53_rip by_Aleksan55.mkv654.93 MB
07 серия_Горький 53_rip by_Aleksan55.mkv649.18 MB
08 серия_Горький 53_rip by_Aleksan55.mkv627.75 MB

Похожие раздачи по запросу - Горький
Вчера magnet Горький 53 [S01] (2024) WEB-DLRip-AVC от Generalfilm | КПК 1.71 GB ↑ 0 ↓ 0
2024-05-01 magnet Горький 53 [S01] (2024) WEB-DLRip-AVC от Generalfilm | КПК 1.65 GB ↑ 0 ↓ 0
2024-04-25 magnet Горький 53 [S01] (2024) WEB-DLRip от Generalfilm | КПК 1К1.39 GB ↑ 0 ↓ 0
2024-04-25 magnet Горький 53 [S01] (2024) WEB-DLRip от Files-x 4.95 GB ↑ 0 ↓ 0
2024-04-24 magnet Горький 53 [S01] (2024) WEB-DLRip-AVC от Files-x 5.19 GB ↑ 0 ↓ 0
2024-04-24 magnet Горький 53 [S01] (2024) WEB-DL-HEVC 2160p от ExKinoRay | 4K | SDR 53.48 GB ↑ 0 ↓ 0
2024-04-24 magnet Горький 53 [S01] (2024) WEB-DLRip 5.15 GB ↑ 0 ↓ 0

Кто качает (только для создателя раздачи и модераторов): Локальные пиры отсутствуют

Комментарии


Зарегистрируйтесь чтобы добавить комментарий
Торрент клиент
byTorrent - программа для загрузки торрент-файлов.

Скачать byTorrent.exe (1,5 МБ)

Скачать byTorrent.zip (0,6 МБ)

Поддержи torrent.by
российских рублей
(300 российских рублей это 4$)

Обратная связь rss

End game ©