↑↓torrent.by
Поиск
Логин:  Регистрация
Пароль:

Вся президентская рать / All the President's Men (1976) HDRip от ExKinoRay | P

download Скачать торрент-файл   magnet Магнитная ссылка Размер: 1.46 GB Добавлен: 2024-04-23 17:00
Пиры будут получены из сети DHT
Последний сидер был замечен 2024-05-07 09:15
Информация о фильме Название: Вся президентская рать Оригинальное название: All the President's Men Год выхода: 1976 Жанр: триллер, драма, история Режиссер: Алан Дж. Пакула В ролях: : Дастин Хоффман, Роберт Редфорд, Джек Уорден, Мартин Болсам, Хэл Холбрук, Джейсон Робардс, Джейн Александр, Мередит Бакстер, Нед Битти, Стивен Коллинз О фильме: С того момента, как репортеры «Вашингтон пост» наткнулись на эту историю, мир замер в ожидании. «Уотергейт» свалил всех - президента Никсона, сенаторов, дипломатов - и окончательно развеял доверие американцев к своему правительству. Страна: США Студия: Warner Brothers Продолжительность: 02:18:22 Перевод: Профессиональный многоголосый Файл Кодек: XviD Качество: HDRip Видео: 688x384 (1.79:1), 23.976 fps, XviD build 67 ~1306 kbps avg, 0.21 bit/pixel Звук: 48 kHz, AC3, 2 ch, ~192 kbps Субтитры: Отсутствуют
[+] MediaInfoGeneral Complete name : D:Вся президентская рать(All.The.President's.Men).1976.HDRip by.ExKinoRay.avi Format : AVI Format/Info : Audio Video Interleave Format profile : OpenDML Format settings : BitmapInfoHeader / WaveFormatEx File size : 1.46 GiB Duration : 2 h 18 min Overall bit rate : 1 510 kb/s Frame rate : 23.976 FPS Writing application : Lavf58.29.100 Video ID : 0 Format : MPEG-4 Visual Format profile : Advanced Simple@L5 Format settings : BVOP1 / Custom Matrix Format settings, BVOP : 1 Format settings, QPel : No Format settings, GMC : No warppoints Format settings, Matrix : Custom Codec ID : XVID Codec ID/Hint : XviD Duration : 2 h 18 min Bit rate : 1 306 kb/s Width : 688 pixels Height : 384 pixels Display aspect ratio : 16:9 Frame rate : 23.976 (24000/1001) FPS Color space : YUV Chroma subsampling : 4:2:0 Bit depth : 8 bits Scan type : Progressive Compression mode : Lossy Bits/(Pixel*Frame) : 0.206 Stream size : 1.26 GiB (86%) Writing library : XviD 67 Audio ID : 1 Format : AC-3 Format/Info : Audio Coding 3 Commercial name : Dolby Digital Codec ID : 2000 Duration : 2 h 18 min Bit rate mode : Constant Bit rate : 192 kb/s Channel(s) : 2 channels Channel layout : L R Sampling rate : 48.0 kHz Frame rate : 31.250 FPS (1536 SPF) Bit depth : 16 bits Compression mode : Lossy Stream size : 190 MiB (13%) Alignment : Aligned on interleaves Interleave, duration : 32 ms (0.77 video frame) Title : MVO Service kind : Complete Main
[+] Скриншоты
Релиз от: Рип изготовил:

Всего файлов в раздаче: 1 
Вся президентская рать(All.The.President's.Men).1976.HDRip by.ExKinoRay.avi1.46 GB

Похожие раздачи по запросу - Вся
2024-05-08 magnet Сборник - ВИА: Вся наша жизнь [001-110 CD] (2021-2024) MP3 от Ovvod7 17.97 GB ↑ 0 ↓ 0
2024-03-30 magnet Вся жизнь / Ein ganzes Leben / A Whole Life (2023) BDRip 720p от DoMiNo & селезень | P 3.40 GB ↑ 0 ↓ 0
2024-03-29 magnet Вся жизнь / Ein ganzes Leben / A Whole Life (2023) BDRip 1080p от селезень | P 10.76 GB ↑ 0 ↓ 0
2024-03-29 magnet Вся жизнь / Ein ganzes Leben / A Whole Life (2023) BDRip от MegaPeer | P 1.46 GB ↑ 0 ↓ 0
2024-03-29 magnet Вся жизнь / Ein ganzes Leben / A Whole Life (2023) BDRip от от toxics & селезень | P 1.46 GB ↑ 0 ↓ 0
2024-03-03 magnet Серия - «Вся история в одном томе» [17 книг] (2018-2023) FB2, EPUB, PDF 101.21 MB ↑ 0 ↓ 0

Комментарии


Зарегистрируйтесь чтобы добавить комментарий
Торрент клиент
byTorrent - программа для загрузки торрент-файлов.

Скачать byTorrent.exe (1,5 МБ)

Скачать byTorrent.zip (0,6 МБ)

Поддержи torrent.by
российских рублей
(300 российских рублей это 4$)

Обратная связь rss

End game ©