↑↓torrent.by
Поиск
Логин:  Регистрация
Пароль:

TTF Saxophone Quartet - Dances & Declamations [24-bit Hi-Res] (2024) FLAC

download Скачать торрент-файл   magnet Магнитная ссылка Размер: 336.97 MB Добавлен: 2024-04-23 17:00
Пиры будут получены из сети DHT
Последний сидер был замечен 2024-05-16 13:11
Название: Dances & Declamations Исполнитель: TTF Saxophone Quartet Год: 2024 Жанр: Classical Издатель (лейбл): Ravello Records Продолжительность: 00:41:36 Формат/Кодек: FLAC Тип рипа: Tracks Битрейт аудио: Lossless Разрядность: 24 Bit/44,1 kHz
[+] Трек-лист 01. 2 Bagatelles: No. 1, Allegro (00:03:54) 02. 2 Bagatelles: No. 2, Allegro Giocoso (00:02:46) 03. Suite For Saxophone Quartet, Op. 11: I. Prelude (00:01:25) 04. Suite For Saxophone Quartet, Op. 11: Ii. Five Tones (00:01:04) 05. Suite For Saxophone Quartet, Op. 11: Iii. Eclogue (00:02:16) 06. Suite For Saxophone Quartet, Op. 11: Iv. Interlude (00:00:37) 07. Suite For Saxophone Quartet, Op. 11: V. Finale (00:01:52) 08. Foursome: I. Four-Square Ostinato (00:01:40) 09. Foursome: Ii. Four-In-Three (00:01:23) 10. Foursome: Iii. Two-By-Two Canon (00:00:52) 11. Foursome: Iv. Four-Ward March! (00:01:15) 12. The Renaissance Book: No. 1, Three Dances (00:02:20) 13. The Renaissance Book: No. 2, Ah Robin (00:02:42) 14. The Renaissance Book: No. 3, Downberry Down (00:02:03) 15. The Renaissance Book: No. 4, Blow Thy Horn, Hunter (00:00:47) 16. The Renaissance Book: No. 5, Where Be Ye, My Love (00:01:44) 17. The Renaissance Book: No. 6, Pastime With Good Company (00:01:04) 18. Saxophone Quartet: I. Prelude (00:01:24) 19. Saxophone Quartet: Ii. Waltz (00:01:33) 20. Saxophone Quartet: Iii. Fugue-Like (00:01:46) 21. Saxophone Quartet: Iv. Lament (00:02:04) 22. Saxophone Quartet: V. Finale (00:01:26) 23. Declamation And Dance (00:03:39)
[+] DRM foobar2000 1.5.5 / Замер динамического диапазона (DR) 1.1.1 ------------------------------------------------------------------------------- Анализ: Ttf Saxophone Quartet / Dances & Declamations -------------------------------------------------------------------------------- DR Пики RMS Продолжительность трека -------------------------------------------------------------------------------- DR11 -1.88 дБ -16.64 дБ 3:54 01-2 Bagatelles: No. 1, Allegro DR12 -0.98 дБ -15.55 дБ 2:46 02-2 Bagatelles: No. 2, Allegro Giocoso DR10 -5.63 дБ -19.57 дБ 1:25 03-Suite For Saxophone Quartet, Op. 11: I. Prelude DR12 -5.22 дБ -22.00 дБ 1:04 04-Suite For Saxophone Quartet, Op. 11: Ii. Five Tones DR12 -5.23 дБ -21.39 дБ 2:16 05-Suite For Saxophone Quartet, Op. 11: Iii. Eclogue DR10 -4.73 дБ -21.47 дБ 0:37 06-Suite For Saxophone Quartet, Op. 11: Iv. Interlude DR10 -4.88 дБ -19.97 дБ 1:52 07-Suite For Saxophone Quartet, Op. 11: V. Finale DR9 -6.03 дБ -19.22 дБ 1:40 08-Foursome: I. Four-Square Ostinato DR9 -7.90 дБ -19.76 дБ 1:23 09-Foursome: Ii. Four-In-Three DR9 -5.57 дБ -18.46 дБ 0:52 10-Foursome: Iii. Two-By-Two Canon DR10 -5.15 дБ -17.99 дБ 1:15 11-Foursome: Iv. Four-Ward March! DR12 -2.34 дБ -17.65 дБ 2:20 12-The Renaissance Book: No. 1, Three Dances DR9 -5.55 дБ -19.27 дБ 2:42 13-The Renaissance Book: No. 2, Ah Robin DR9 -8.34 дБ -20.90 дБ 2:03 14-The Renaissance Book: No. 3, Downberry Down DR11 -2.72 дБ -18.04 дБ 0:47 15-The Renaissance Book: No. 4, Blow Thy Horn, Hunter DR8 -9.39 дБ -21.73 дБ 1:44 16-The Renaissance Book: No. 5, Where Be Ye, My Love DR11 -3.26 дБ -17.72 дБ 1:04 17-The Renaissance Book: No. 6, Pastime With Good Company DR11 -1.52 дБ -16.02 дБ 1:24 18-Saxophone Quartet: I. Prelude DR10 -5.09 дБ -19.67 дБ 1:33 19-Saxophone Quartet: Ii. Waltz DR10 -5.30 дБ -18.85 дБ 1:46 20-Saxophone Quartet: Iii. Fugue-Like DR10 -4.97 дБ -20.23 дБ 2:04 21-Saxophone Quartet: Iv. Lament DR11 -1.53 дБ -16.02 дБ 1:26 22-Saxophone Quartet: V. Finale DR11 -1.53 дБ -17.00 дБ 3:39 23-Declamation And Dance -------------------------------------------------------------------------------- Количество треков: 23 Реальные значения DR: DR10 Частота: 44100 Гц Каналов: 2 Разрядность: 24 Битрейт: 1130 кбит/с Кодек: FLAC ================================================================================
Время раздачи: 24/7 (минимум до появления первых 3-5 скачавших, на раздачи не возвращаюсь) Первое правило участника файлообмена: "Скачал сам - дай скачать другому!"

Всего файлов в раздаче: 24 
01. 2 Bagatelles No. 1, Allegro.flac34.93 MB
02. 2 Bagatelles No. 2, Allegro Giocoso.flac25.67 MB
03. Suite For Saxophone Quartet, Op. 11 I. Prelude.flac10.89 MB
04. Suite For Saxophone Quartet, Op. 11 Ii. Five Tones.flac8.09 MB
05. Suite For Saxophone Quartet, Op. 11 Iii. Eclogue.flac16.84 MB
06. Suite For Saxophone Quartet, Op. 11 Iv. Interlude.flac4.55 MB
07. Suite For Saxophone Quartet, Op. 11 V. Finale.flac14.48 MB
08. Foursome I. Four-Square Ostinato.flac14.66 MB
09. Foursome Ii. Four-In-Three.flac11.80 MB
10. Foursome Iii. Two-By-Two Canon.flac7.61 MB
Показать все файлы

Комментарии


Зарегистрируйтесь чтобы добавить комментарий
Торрент клиент
byTorrent - программа для загрузки торрент-файлов.

Скачать byTorrent.exe (1,5 МБ)

Скачать byTorrent.zip (0,6 МБ)

Поддержи torrent.by
российских рублей
(300 российских рублей это 4$)

Обратная связь rss

End game ©