↑↓torrent.by
Поиск
Логин:  Регистрация
Пароль:

Сбой времени / Брешь / The Breach (2022) BDRip от New-Team | D

download Скачать торрент-файл   magnet Магнитная ссылка Размер: 1.46 GB Добавлен: 2024-04-23 17:00
Пиры будут получены из сети DHT
Последний сидер был замечен 2024-04-24 20:36
Сбой времени / Брешь / The Breach Год выпуска: 2022 Выпущено: Канада / Hangar 18 Media Жанр: Ужасы Режиссер: Родриго Гудиньо / Rodrigo Gudiño В ролях: Аллан Хоуко, Эмили Алатало, Натали Браун, Уэсли Френч, Адам Кеннет Уилсон, Алекс Лайфсон, Мэри Антонини, Авайс Уайсс, Дэвид Р. Картер, Элиза Паст О фильме: Готовясь уйти с должности, начальник полиции Хокинс расследует свое последнее дело, связанное с выброшенным на берег реки искалеченным трупом. Вместе с напарниками он отправляется на поиски жилья вероятной жертвы, доктора физики Портера. Добравшись до его дома, кажущегося заброшенным, они заходят внутрь. И то, что они там найдут, способно свести с ума. Продолжительность: 01:33:03 Перевод: Профессиональный (полное дублирование) | OKKO Субтитры: Русские (full), английские (SDH), Раздача от: Автор релиза: JNS82. Формат: AVI Качество: BDRip | The.Breach.2022.MULTi.COMPLETE.BLURAY-GMA Видео: 720x304 (2.35:1), 24.000 fps, XviD MPEG-4 ~ 1858 kbps avg, bit/pixel, build 73 Аудио: 48 kHz, AC3 Dolby Digital, 3/2 (L,C,R,l,r) + LFE ch, ~ 384 kbps | RUS |
[+] MediaInfoОбщее Полное имя : D:TorrentsThe.Breach.2022.BDRip_от New-Team_by_JNS82The.Breach.2022.BDRip_от New-Team_by_JNS82.avi Формат : AVI Формат/Информация : Audio Video Interleave Настройки формата : BitmapInfoHeader / WaveFormatEx Размер файла : 1,46 Гбайт Продолжительность : 1 ч. 33 мин. Общий битрейт : 2 251 Кбит/сек Частота кадров : 24,000 кадра/сек Программа кодирования : VirtualDubMod 1.5.10.2 (build 2540/release) Библиотека кодирования : VirtualDubMod build 2540/release Видео Идентификатор : 0 Формат : MPEG-4 Visual Профиль формата : Advanced Simple@L5 Настройки формата : BVOP1 / Custom Matrix Параметр BVOP формата : 1 Параметр QPel формата : Нет Параметр GMC формата : Без точки перехода Параметр Matrix формата : Выборочная Идентификатор кодека : XVID Идентификатор кодека/Подсказка : XviD Продолжительность : 1 ч. 33 мин. Битрейт : 1 858 Кбит/сек Ширина : 720 пикселей Высота : 304 пикселя Соотношение сторон дисплея : 2,35:1 Частота кадров : 24,000 кадра/сек Цветовое пространство : YUV Цветовая субдискретизация : 4:2:0 Битовая глубина : 8 бит Тип развёртки : Прогрессивная Метод сжатия : С потерями Бит/(Пиксели*Кадры) : 0.354 Размер потока : 1,21 Гбайт (83%) Библиотека кодирования : XviD 73 Аудио Идентификатор : 1 Формат : AC-3 Формат/Информация : Audio Coding 3 Коммерческое название : Dolby Digital Идентификатор кодека : 2000 Продолжительность : 1 ч. 33 мин. Вид битрейта : Постоянный Битрейт : 384 Кбит/сек Канал(-ы) : 6 каналов Расположение каналов : L R C LFE Ls Rs Частота дискретизации : 48,0 КГц Частота кадров : 31,250 кадров/сек (1536 SPF) Метод сжатия : С потерями Размер потока : 256 Мбайт (17%) Выравнивание : Разделение по промежуткам Чередование, продолжительность : 42 мс. (1,00 видеокадр) Чередование, продолжительность пред.загр : 500 мс. Вид сервиса : Complete Main Нормализация звука речи : -31 dB cmixlev : -3.0 dB surmixlev : -6 dB dialnorm_Average : -31 dB dialnorm_Minimum : -31 dB dialnorm_Maximum : -31 dB

Всего файлов в раздаче: 3 
The.Breach.2022.BDRip_от New-Team_by_JNS82.avi1.46 GB
The.Breach.2022.BDRip_от New-Team_by_JNS82_[eng].srt78.77 kB
The.Breach.2022.BDRip_от New-Team_by_JNS82_[rus].srt59.12 kB

Похожие раздачи по запросу - Сбой
2024-04-24 magnet Сбой времени / Брешь / The Breach (2022) BDRemux 1080p | D 14.05 GB ↑ 0 ↓ 0
2024-04-23 magnet Сбой времени / Брешь / The Breach (2022) BDRip 720p от DoMiNo & селезень | D 3.00 GB ↑ 0 ↓ 0
2024-04-23 magnet Сбой времени / Брешь / The Breach (2022) BDRip-AVC от DoMiNo & селезень | D 1.46 GB ↑ 0 ↓ 0
2024-04-23 magnet Сбой времени / Брешь / The Breach (2022) BDRip 1080p от селезень | D 7.41 GB ↑ 0 ↓ 0

Кто качает (только для создателя раздачи и модераторов): Локальные пиры отсутствуют

Комментарии


Зарегистрируйтесь чтобы добавить комментарий
Торрент клиент
byTorrent - программа для загрузки торрент-файлов.

Скачать byTorrent.exe (1,5 МБ)

Скачать byTorrent.zip (0,6 МБ)

Поддержи torrent.by
российских рублей
(300 российских рублей это 4$)

Обратная связь rss

End game ©