↑↓torrent.by
Поиск
Логин:  Регистрация
Пароль:

Сбой времени / Брешь / The Breach (2022) BDRip 720p от DoMiNo & селезень | D

download Скачать торрент-файл   magnet Магнитная ссылка Размер: 3.00 GB Добавлен: 2024-04-23 17:00
Пиры будут получены из сети DHT
Последний сидер был замечен 2024-05-07 12:00
Информация о фильме Название: Сбой времени / Брешь Оригинальное название: The Breach Год выхода: 2022 Жанр: ужасы Режиссер: Родриго Гудиньо В ролях: Аллан Хоуко, Эмили Алатало, Натали Браун, Уэсли Френч, Адам Кеннет Уилсон, Алекс Лайфсон, Мэри Антонини, Ава Уайсс, David R Carter, Elisa Paszt О фильме: Готовясь уйти с должности, начальник полиции Хокинс расследует свое последнее дело, связанное с выброшенным на берег реки искалеченным трупом. Вместе с напарниками он отправляется на поиски жилья вероятной жертвы, доктора физики Портера. Добравшись до его дома, кажущегося заброшенным, они заходят внутрь. И то, что они там найдут, способно свести с ума. Страна: Канада Студия: Hangar 18 Media Продолжительность: 01:33:03 Перевод: Профессиональный (полное дублирование) | Okko Субтитры: Русские (Full), английские, немецкие, шведские, финские Файл Формат: Matroska Качество: BDRip 720p Видео: 1280x536 at 24.000 fps, x264@L4.1, ~3198 kbps Аудио 1: AC3, 2 ch, ~384 kbps - | Русский | Аудио 2: E-AC3, 2 ch, ~384 kbps - | Русский | Аудио 3: AC3, 6 ch, ~640 kbps - | Английский | Формат субтитров: softsub (SRT) ***Рип от: -=DoMiNo=-
[+] M/IGeneral Unique ID : 250088638815504228062186217048514032003 (0xBC2551E00619AE4F0045DBBF2484F183) Complete name : S:The.Breach.2022.DUB.BDRip.720p.x264.seleZen.mkv Format : Matroska Format version : Version 4 File size : 3.00 GiB Duration : 1 h 33 min Overall bit rate : 4 608 kb/s Frame rate : 24.000 FPS Movie name : The.Breach.2022.DUB.BDRip.720p.x264.seleZen Encoded date : 2024-04-23 09:16:10 UTC Writing application : mkvmerge v83.0 ('Circle Of Friends') 64-bit Writing library : libebml v1.4.5 + libmatroska v1.7.1 Cover : Yes Attachments : cover.jpg / small_cover.jpg Video ID : 1 Format : AVC Format/Info : Advanced Video Codec Format profile : High@L4.1 Format settings : CABAC / 12 Ref Frames Format settings, CABAC : Yes Format settings, Reference : 12 frames Codec ID : V_MPEG4/ISO/AVC Duration : 1 h 33 min Bit rate : 3 198 kb/s Width : 1 280 pixels Height : 536 pixels Display aspect ratio : 2.39:1 Frame rate mode : Constant Frame rate : 24.000 FPS Color space : YUV Chroma subsampling : 4:2:0 Bit depth : 8 bits Scan type : Progressive Bits/(Pixel*Frame) : 0.194 Stream size : 2.08 GiB (69%) Title : -=DoMiNo=- Writing library : x264 core 164 r3190 -DoMiNo Encoding settings : cabac=1 / ref=12 / deblock=1:-2:-2 / analyse=0x3:0x133 / me=umh / subme=10 / psy=1 / psy_rd=1.03:0.05 / mixed_ref=1 / me_range=32 / chroma_me=1 / trellis=2 / 8x8dct=1 / cqm=0 / deadzone=21,11 / fast_pskip=0 / chroma_qp_offset=-3 / threads=17 / lookahead_threads=4 / sliced_threads=0 / nr=0 / decimate=0 / interlaced=0 / bluray_compat=0 / constrained_intra=0 / bframes=10 / b_pyramid=2 / b_adapt=2 / b_bias=0 / direct=1 / weightb=1 / open_gop=0 / weightp=2 / keyint=240 / keyint_min=24 / scenecut=40 / intra_refresh=0 / rc_lookahead=60 / rc=crf / mbtree=0 / crf=16.5 / qcomp=0.60 / qpmin=0 / qpmax=69 / qpstep=4 / vbv_maxrate=50000 / vbv_bufsize=62500 / crf_max=0.0 / nal_hrd=none / filler=0 / ip_ratio=1.40 / pb_ratio=1.30 / aq=3:0.80 Language : English Default : Yes Forced : No Color range : Limited Color primaries : BT.709 Transfer characteristics : BT.709 Matrix coefficients : BT.709 Audio #1 ID : 2 Format : AC-3 Format/Info : Audio Coding 3 Commercial name : Dolby Digital Codec ID : A_AC3 Duration : 1 h 33 min Bit rate mode : Constant Bit rate : 384 kb/s Channel(s) : 6 channels Channel layout : L R C LFE Ls Rs Sampling rate : 48.0 kHz Frame rate : 31.250 FPS (1536 SPF) Compression mode : Lossy Stream size : 256 MiB (8%) Title : Dub Language : Russian Service kind : Complete Main Default : Yes Forced : No AC3_metadata cmixlev : -3.0 dB surmixlev : -6 dB Audio #2 ID : 3 Format : E-AC-3 Format/Info : Enhanced AC-3 Commercial name : Dolby Digital Plus Codec ID : A_EAC3 Duration : 1 h 33 min Bit rate mode : Constant Bit rate : 384 kb/s Channel(s) : 6 channels Channel layout : L R C LFE Ls Rs Sampling rate : 48.0 kHz Frame rate : 31.250 FPS (1536 SPF) Compression mode : Lossy Stream size : 256 MiB (8%) Title : Dub Language : Russian Service kind : Complete Main Default : No Forced : No Audio #3 ID : 4 Format : AC-3 Format/Info : Audio Coding 3 Commercial name : Dolby Digital Codec ID : A_AC3 Duration : 1 h 33 min Bit rate mode : Constant Bit rate : 640 kb/s Channel(s) : 6 channels Channel layout : L R C LFE Ls Rs Sampling rate : 48.0 kHz Frame rate : 31.250 FPS (1536 SPF) Compression mode : Lossy Stream size : 426 MiB (14%) Title : Original Language : English Service kind : Complete Main Default : No Forced : No AC3_metadata cmixlev : -4.5 dB surmixlev : -6 dB Text #1 ID : 5 Format : UTF-8 Codec ID : S_TEXT/UTF8 Codec ID/Info : UTF-8 Plain Text Duration : 1 h 25 min Bit rate : 46 b/s Frame rate : 0.149 FPS Count of elements : 765 Stream size : 29.3 KiB (0%) Title : Full Language : Russian Default : No Forced : No Text #2 ID : 6 Format : UTF-8 Codec ID : S_TEXT/UTF8 Codec ID/Info : UTF-8 Plain Text Duration : 1 h 32 min Bit rate : 46 b/s Frame rate : 0.217 FPS Count of elements : 1206 Stream size : 31.6 KiB (0%) Title : English (SDH) Language : English Default : No Forced : No Text #3 ID : 7 Format : UTF-8 Codec ID : S_TEXT/UTF8 Codec ID/Info : UTF-8 Plain Text Duration : 1 h 25 min Bit rate : 35 b/s Frame rate : 0.127 FPS Count of elements : 653 Stream size : 22.4 KiB (0%) Title : German (SDH) Language : German Default : No Forced : No Text #4 ID : 8 Format : UTF-8 Codec ID : S_TEXT/UTF8 Codec ID/Info : UTF-8 Plain Text Duration : 1 h 27 min Bit rate : 28 b/s Frame rate : 0.106 FPS Count of elements : 553 Stream size : 18.4 KiB (0%) Title : Swedish Language : Swedish Default : No Forced : No Text #5 ID : 9 Format : UTF-8 Codec ID : S_TEXT/UTF8 Codec ID/Info : UTF-8 Plain Text Duration : 1 h 27 min Bit rate : 27 b/s Frame rate : 0.121 FPS Count of elements : 633 Stream size : 17.8 KiB (0%) Title : Finnish (SDH) Language : Finnish Default : No Forced : No Menu 00:00:00.000 : Chapter 1 00:12:58.875 : Chapter 2 00:28:21.417 : Chapter 3 00:40:09.542 : Chapter 4 00:53:53.667 : Chapter 5 01:06:55.417 : Chapter 6 01:28:09.583 : Chapter 7
Релиз: Присоединяйся к: Кликай на баннеры.

Всего файлов в раздаче: 1 
The.Breach.2022.DUB.BDRip.720p.x264.seleZen.mkv3.00 GB

Похожие раздачи по запросу - Сбой
2024-04-24 magnet Сбой времени / Брешь / The Breach (2022) BDRemux 1080p | D 14.05 GB ↑ 0 ↓ 0
2024-04-23 magnet Сбой времени / Брешь / The Breach (2022) BDRip-AVC от DoMiNo & селезень | D 1.46 GB ↑ 0 ↓ 0
2024-04-23 magnet Сбой времени / Брешь / The Breach (2022) BDRip 1080p от селезень | D 7.41 GB ↑ 0 ↓ 0
2024-04-23 magnet Сбой времени / Брешь / The Breach (2022) BDRip от New-Team | D 1.46 GB ↑ 0 ↓ 0

Кто качает (только для создателя раздачи и модераторов): Локальные пиры отсутствуют

Комментарии


Зарегистрируйтесь чтобы добавить комментарий
Торрент клиент
byTorrent - программа для загрузки торрент-файлов.

Скачать byTorrent.exe (1,5 МБ)

Скачать byTorrent.zip (0,6 МБ)

Поддержи torrent.by
российских рублей
(300 российских рублей это 4$)

Обратная связь rss

End game ©