↑↓torrent.by
Поиск
Логин:  Регистрация
Пароль:

Сбой времени / Брешь / The Breach (2022) BDRip 1080p от селезень | D

download Скачать торрент-файл   magnet Магнитная ссылка Размер: 7.41 GB Добавлен: 2024-04-23 17:00
Пиры будут получены из сети DHT
Последний сидер был замечен 2024-05-06 17:35
Информация о фильме Название: Сбой времени / Брешь Оригинальное название: The Breach Год выхода: 2022 Жанр: ужасы Режиссер: Родриго Гудиньо В ролях: Аллан Хоуко, Эмили Алатало, Натали Браун, Уэсли Френч, Адам Кеннет Уилсон, Алекс Лайфсон, Мэри Антонини, Ава Уайсс, David R Carter, Elisa Paszt О фильме: Начальнику полиции крохотного городка Лонкроу Джону Хокинсу остаётся всего несколько дней до повышения и отъезда в большой город, но вдруг появляется новое дело - на берег реки течением выносит лодку с чудовищно обезображенным трупом. Страна: Канада Студия: Hangar 18 Media Продолжительность: 01:33:03 Перевод: Дублированный | OKKO Качество: BDRip 1080p Видео: MPEG-4 AVC, 1920x804, 10.0 Mbit/s, 24.000 fps Аудио #01: 48 kHz, AC3, 5.1, 384 Kbps | Дублированный | OKKO | RUS | Аудио #02: 48 kHz, E-AC3, 5.1, 384 Kbps | Дублированный | OKKO | RUS | Аудио #03: 48 kHz, AC3, 5.1, 640 Kbps | Оригинал | ENG | Субтитры: Русские (Full), английские, немецкие, шведские, финские
[+] MIGeneral Unique ID : 264614474007823220586053321623857885639 (0xC712E4D8019C6E833D3634D5EC4D71C7) Complete name : H:VideoHThe.Breach.2022.BDRip.1080p.seleZen.mkv Format : Matroska Format version : Version 4 File size : 7.41 GiB Duration : 1 h 33 min Overall bit rate : 11.4 Mb/s Frame rate : 24.000 FPS Movie name : The Breach 2022 from seleZen Encoded date : 2024-04-23 09:07:19 UTC Writing application : mkvmerge v80.0 ('Roundabout') 64-bit Writing library : libebml v1.4.4 + libmatroska v1.7.1 Video ID : 1 Format : AVC Format/Info : Advanced Video Codec Format profile : High@L4.1 Format settings : CABAC / 5 Ref Frames Format settings, CABAC : Yes Format settings, Reference : 5 frames Codec ID : V_MPEG4/ISO/AVC Duration : 1 h 33 min Bit rate : 10 000 kb/s Width : 1 920 pixels Height : 804 pixels Display aspect ratio : 2.39:1 Frame rate mode : Constant Frame rate : 24.000 FPS Color space : YUV Chroma subsampling : 4:2:0 Bit depth : 8 bits Scan type : Progressive Bits/(Pixel*Frame) : 0.270 Stream size : 6.50 GiB (88%) Writing library : x264 core 164 r3164 seleZen Encoding settings : cabac=1 / ref=5 / deblock=1:-2:-2 / analyse=0x3:0x133 / me=umh / subme=10 / psy=1 / psy_rd=1.02:0.05 / mixed_ref=1 / me_range=48 / chroma_me=1 / trellis=2 / 8x8dct=1 / cqm=0 / deadzone=21,11 / fast_pskip=0 / chroma_qp_offset=-3 / threads=25 / lookahead_threads=6 / sliced_threads=0 / nr=0 / decimate=0 / interlaced=0 / bluray_compat=0 / constrained_intra=0 / bframes=10 / b_pyramid=2 / b_adapt=2 / b_bias=0 / direct=3 / weightb=1 / open_gop=0 / weightp=2 / keyint=240 / keyint_min=23 / scenecut=40 / intra_refresh=0 / rc_lookahead=60 / rc=2pass / mbtree=0 / bitrate=10000 / ratetol=1.0 / qcomp=0.60 / qpmin=0 / qpmax=51 / qpstep=4 / cplxblur=20.0 / qblur=0.5 / vbv_maxrate=50000 / vbv_bufsize=62500 / nal_hrd=none / filler=0 / ip_ratio=1.40 / pb_ratio=1.30 / aq=3:0.80 Language : English Default : Yes Forced : No Audio #1 ID : 2 Format : AC-3 Format/Info : Audio Coding 3 Commercial name : Dolby Digital Codec ID : A_AC3 Duration : 1 h 33 min Bit rate mode : Constant Bit rate : 384 kb/s Channel(s) : 6 channels Channel layout : L R C LFE Ls Rs Sampling rate : 48.0 kHz Frame rate : 31.250 FPS (1536 SPF) Compression mode : Lossy Stream size : 256 MiB (3%) Language : Russian Service kind : Complete Main Default : Yes Forced : No Audio #2 ID : 3 Format : E-AC-3 Format/Info : Enhanced AC-3 Commercial name : Dolby Digital Plus Codec ID : A_EAC3 Duration : 1 h 33 min Bit rate mode : Constant Bit rate : 384 kb/s Channel(s) : 6 channels Channel layout : L R C LFE Ls Rs Sampling rate : 48.0 kHz Frame rate : 31.250 FPS (1536 SPF) Compression mode : Lossy Stream size : 256 MiB (3%) Language : Russian Service kind : Complete Main Default : No Forced : No Audio #3 ID : 4 Format : AC-3 Format/Info : Audio Coding 3 Commercial name : Dolby Digital Codec ID : A_AC3 Duration : 1 h 33 min Bit rate mode : Constant Bit rate : 640 kb/s Channel(s) : 6 channels Channel layout : L R C LFE Ls Rs Sampling rate : 48.0 kHz Frame rate : 31.250 FPS (1536 SPF) Compression mode : Lossy Stream size : 426 MiB (6%) Language : English Service kind : Complete Main Default : No Forced : No Text #1 ID : 5 Format : UTF-8 Codec ID : S_TEXT/UTF8 Codec ID/Info : UTF-8 Plain Text Duration : 1 h 25 min Bit rate : 46 b/s Frame rate : 0.149 FPS Count of elements : 765 Stream size : 29.3 KiB (0%) Language : Russian Default : No Forced : No Text #2 ID : 6 Format : UTF-8 Codec ID : S_TEXT/UTF8 Codec ID/Info : UTF-8 Plain Text Duration : 1 h 32 min Bit rate : 46 b/s Frame rate : 0.217 FPS Count of elements : 1206 Stream size : 31.6 KiB (0%) Title : English (SDH) Language : English Default : No Forced : No Text #3 ID : 7 Format : UTF-8 Codec ID : S_TEXT/UTF8 Codec ID/Info : UTF-8 Plain Text Duration : 1 h 25 min Bit rate : 35 b/s Frame rate : 0.127 FPS Count of elements : 653 Stream size : 22.4 KiB (0%) Title : German (SDH) Language : German Default : No Forced : No Text #4 ID : 8 Format : UTF-8 Codec ID : S_TEXT/UTF8 Codec ID/Info : UTF-8 Plain Text Duration : 1 h 27 min Bit rate : 28 b/s Frame rate : 0.106 FPS Count of elements : 553 Stream size : 18.4 KiB (0%) Title : Swedish Language : Swedish Default : No Forced : No Text #5 ID : 9 Format : UTF-8 Codec ID : S_TEXT/UTF8 Codec ID/Info : UTF-8 Plain Text Duration : 1 h 27 min Bit rate : 27 b/s Frame rate : 0.121 FPS Count of elements : 633 Stream size : 17.8 KiB (0%) Title : Finnish (SDH) Language : Finnish Default : No Forced : No Menu 00:00:00.000 : Chapter 1 00:12:58.875 : Chapter 2 00:28:21.417 : Chapter 3 00:40:09.542 : Chapter 4 00:53:53.667 : Chapter 5 01:06:55.417 : Chapter 6 01:28:09.583 : Chapter 7
Релиз: Присоединяйся к: Кликай на баннеры.

Всего файлов в раздаче: 1 
The.Breach.2022.BDRip.1080p.seleZen.mkv7.41 GB

Похожие раздачи по запросу - Сбой
2024-04-24 magnet Сбой времени / Брешь / The Breach (2022) BDRemux 1080p | D 14.05 GB ↑ 0 ↓ 0
2024-04-23 magnet Сбой времени / Брешь / The Breach (2022) BDRip 720p от DoMiNo & селезень | D 3.00 GB ↑ 0 ↓ 0
2024-04-23 magnet Сбой времени / Брешь / The Breach (2022) BDRip-AVC от DoMiNo & селезень | D 1.46 GB ↑ 0 ↓ 0
2024-04-23 magnet Сбой времени / Брешь / The Breach (2022) BDRip от New-Team | D 1.46 GB ↑ 0 ↓ 0

Кто качает (только для создателя раздачи и модераторов): Локальные пиры отсутствуют

Комментарии


Зарегистрируйтесь чтобы добавить комментарий
Торрент клиент
byTorrent - программа для загрузки торрент-файлов.

Скачать byTorrent.exe (1,5 МБ)

Скачать byTorrent.zip (0,6 МБ)

Поддержи torrent.by
российских рублей
(300 российских рублей это 4$)

Обратная связь rss

End game ©