↑↓torrent.by
Поиск
Логин:  Регистрация
Пароль:

Мятежная Луна, часть 2: Оставляющая шрамы / Rebel Moon - Part Two: The Scargiver (2024) WEB-DL-HEVC 2160p | 4K | HDR | P, P2

download Скачать торрент-файл   magnet Магнитная ссылка Размер: 12.50 GB Добавлен: 2024-04-23 17:00
Пиры будут получены из сети DHT
Последний сидер был замечен вчера в 17:36
Информация о фильме Название: Мятежная Луна, часть 2: Оставляющая шрамы Оригинальное название: Rebel Moon - Part Two: The Scargiver Год выхода: 2024 Производство: США / Grand Electric, The Stone Quarry Жанр: фантастика, боевик, драма Режиссер: Зак Снайдер Актеры: София Бутелла, Эд Скрейн, Михил Хёйсман, Джимон Хонсу, Пэ Ду-на, Стаз Нэйр, Джена Мэлоун, Стюарт Мартин, Энтони Хопкинс, Кэри Элвес Описание: Вернувшись на Велдт, Кора с отрядом наёмников и местными крестьянами готовится дать бой превосходящим силам агрессоров под предводительством адмирала Нобла. Продолжительность: 02:03:55 Качество видео: WEB-DL 2160p HDR Перевод: Многоголосый профессиональный (Jaskier), двуголосый профессиональный (ViruseProject), дублированный (Postmodern) Субтитры: русские, английские, украинские Видео: HEVC/H.265, 3840x2160, ~12 Мbps, 24 fps Аудио 1: AC3, 6 ch, 384 kbps, русский (MVO Jaskier) Аудио 2: AC3, 6 ch, 640 kbps, русский (DVO ViruseProject) Аудио 3: AC3, 6 ch, 640 kbps, украинский (DUB Postmodern) Аудио 4: E-AC3 JOC, 6 ch, 768 kbps, английский
[+] MediaInfo: Общее Уникальный идентификатор : 121108539453648925821271769957290468225 (0x5B1CA80103AFD68C17137FB620BFE381) Полное имя : Rebel Moon_Part Two_The Scargiver.2024.HDR.WEB-DL.2160p.W.mkv Формат : Matroska Версия формата : Version 4 Размер файла : 12,5 Гбайт Продолжительность : 2 ч. 3 мин. Общий битрейт : 14,4 Мбит/сек Частота кадров : 24,000 кадра/сек Название фильма : Rebel Moon_Part Two_The Scargiver.2024.HDR.WEB-DL.2160p.W Дата кодирования : 2024-04-23 08:40:19 UTC Программа кодирования : mkvmerge v23.0.0 ('The Bride Said No') 64-bit Библиотека кодирования : libebml v1.3.6 + libmatroska v1.4.9 Видео Идентификатор : 1 Формат : HEVC Формат/Информация : High Efficiency Video Coding Профиль формата : Main 10@L5@Main Формат HDR : SMPTE ST 2086, HDR10 compatible Идентификатор кодека : V_MPEGH/ISO/HEVC Продолжительность : 2 ч. 3 мин. Битрейт : 12,0 Мбит/сек Ширина : 3 840 пикселей Высота : 2 160 пикселей Соотношение сторон дисплея : 16:9 Режим частоты кадров : Постоянный Частота кадров : 24,000 кадра/сек Цветовое пространство : YUV Цветовая субдискретизация : 4:2:0 (Type 2) Битовая глубина : 10 бит Бит/(Пиксели*Кадры) : 0.060 Размер потока : 10,4 Гбайт (83%) Язык : Английский По умолчанию : Да Принудительно : Нет Цветовой диапазон : Limited Основные цвета : BT.2020 Характеристики трансфера : PQ Коэффициенты матрицы : BT.2020 non-constant Мастеринг основных цветов дисплея : Display P3 Мастеринг яркости дисплея : min: 0.0001 cd/m2, max: 1000 cd/m2 Максимальный уровень яркости содержимого : 405 cd/m2 Максимальный уровень средней яркости кад : 367 cd/m2 Аудио #1 Идентификатор : 2 Формат : AC-3 Формат/Информация : Audio Coding 3 Коммерческое название : Dolby Digital Идентификатор кодека : A_AC3 Продолжительность : 2 ч. 1 мин. Вид битрейта : Постоянный Битрейт : 384 Кбит/сек Канал(-ы) : 6 каналов Расположение каналов : L R C LFE Ls Rs Частота дискретизации : 48,0 КГц Частота кадров : 31,250 кадров/сек (1536 SPF) Метод сжатия : С потерями Размер потока : 334 Мбайт (3%) Заголовок : Jaskier Язык : Русский Вид сервиса : Complete Main По умолчанию : Да Принудительно : Нет AC3_metadata cmixlev : -3.0 dB surmixlev : -3 dB Аудио #2 Идентификатор : 3 Формат : AC-3 Формат/Информация : Audio Coding 3 Коммерческое название : Dolby Digital Идентификатор кодека : A_AC3 Продолжительность : 2 ч. 1 мин. Вид битрейта : Постоянный Битрейт : 640 Кбит/сек Канал(-ы) : 6 каналов Расположение каналов : L R C LFE Ls Rs Частота дискретизации : 48,0 КГц Частота кадров : 31,250 кадров/сек (1536 SPF) Метод сжатия : С потерями Размер потока : 556 Мбайт (4%) Заголовок : ViruseProject Язык : Русский Вид сервиса : Complete Main По умолчанию : Нет Принудительно : Нет AC3_metadata cmixlev : -3.0 dB surmixlev : -3 dB Аудио #3 Идентификатор : 4 Формат : AC-3 Формат/Информация : Audio Coding 3 Коммерческое название : Dolby Digital Идентификатор кодека : A_AC3 Продолжительность : 2 ч. 1 мин. Вид битрейта : Постоянный Битрейт : 640 Кбит/сек Канал(-ы) : 6 каналов Расположение каналов : L R C LFE Ls Rs Частота дискретизации : 48,0 КГц Частота кадров : 31,250 кадров/сек (1536 SPF) Метод сжатия : С потерями Размер потока : 556 Мбайт (4%) Заголовок : Postmodern Язык : Украинский Вид сервиса : Complete Main По умолчанию : Нет Принудительно : Нет AC3_metadata cmixlev : -3.0 dB surmixlev : -3 dB Аудио #4 Идентификатор : 5 Формат : E-AC-3 JOC Формат/Информация : Enhanced AC-3 with Joint Object Coding Коммерческое название : Dolby Digital Plus with Dolby Atmos Идентификатор кодека : A_EAC3 Продолжительность : 2 ч. 3 мин. Вид битрейта : Постоянный Битрейт : 768 Кбит/сек Канал(-ы) : 6 каналов Расположение каналов : L R C LFE Ls Rs Частота дискретизации : 48,0 КГц Частота кадров : 31,250 кадров/сек (1536 SPF) Метод сжатия : С потерями Размер потока : 681 Мбайт (5%) Язык : Английский Вид сервиса : Complete Main По умолчанию : Нет Принудительно : Нет Показатель сложности : 16 Количество динамических объектов : 15 Число каналов бэда : 1 канал Конфигурация каналов бэда : LFE Текст #1 Идентификатор : 6 Формат : UTF-8 Идентификатор кодека : S_TEXT/UTF8 Идентификатор кодека/Информация : UTF-8 Plain Text Продолжительность : 2 ч. 0 мин. Битрейт : 47 бит/сек Частота кадров : 0,118 кадр/сек Число элементов : 857 Размер потока : 41,8 КиБ (0%) Язык : Русский По умолчанию : Нет Принудительно : Нет Текст #2 Идентификатор : 7 Формат : UTF-8 Идентификатор кодека : S_TEXT/UTF8 Идентификатор кодека/Информация : UTF-8 Plain Text Продолжительность : 2 ч. 0 мин. Битрейт : 49 бит/сек Частота кадров : 0,117 кадр/сек Число элементов : 849 Размер потока : 43,5 КиБ (0%) Язык : Украинский По умолчанию : Нет Принудительно : Нет Текст #3 Идентификатор : 8 Формат : UTF-8 Идентификатор кодека : S_TEXT/UTF8 Идентификатор кодека/Информация : UTF-8 Plain Text Продолжительность : 1 ч. 51 мин. Битрейт : 34 бит/сек Частота кадров : 0,136 кадр/сек Число элементов : 910 Размер потока : 28,4 КиБ (0%) Язык : Английский По умолчанию : Нет Принудительно : Нет Текст #4 Идентификатор : 9 Формат : UTF-8 Идентификатор кодека : S_TEXT/UTF8 Идентификатор кодека/Информация : UTF-8 Plain Text Продолжительность : 1 ч. 59 мин. Битрейт : 45 бит/сек Частота кадров : 0,191 кадр/сек Число элементов : 1378 Размер потока : 39,7 КиБ (0%) Заголовок : SDH Язык : Английский По умолчанию : Нет Принудительно : Нет
Скриншоты:

Всего файлов в раздаче: 1 
Rebel Moon_Part Two_The Scargiver.2024.HDR.WEB-DL.2160p.W.mkv12.50 GB

Похожие раздачи по запросу - Мятежная
2024-05-24 magnet Мятежная Луна, часть 2: Оставляющая шрамы / Rebel Moon - Part Two: The Scargiver (2024) WEB-DL-HEVC 2160p | 4K | SDR | D, P, P2 17.16 GB ↑ 0 ↓ 0
2024-05-03 magnet Мятежная Луна, часть 2: Оставляющая шрамы / Rebel Moon - Part Two: The Scargiver (2024) WEB-DL HEVC 2160p | 4K | HDR | Dolby Vision Profile 8 | D 11.25 GB ↑ 0 ↓ 0
2024-04-29 magnet Мятежная Луна, часть 2: Оставляющая шрамы / Rebel Moon - Part Two: The Scargiver (2024) WEB-DLRip 720p от DoMiNo & селезень | D, P, P2 4.39 GB ↑ 0 ↓ 0
2024-04-28 magnet Мятежная Луна, часть 2: Оставляющая шрамы / Rebel Moon - Part Two: The Scargiver (2024) WEB-DLRip 720p от DoMiNo & селезень | D, P, P2 3.78 GB ↑ 0 ↓ 0
2024-04-28 magnet Мятежная Луна, часть 2: Оставляющая шрамы / Rebel Moon - Part Two: The Scargiver (2024) WEB-DL 1080p от EniaHD | D, P, P2, L 7.79 GB ↑ 0 ↓ 0
2024-04-22 magnet Мятежная Луна, часть 1: Дитя огня / Rebel Moon: Part One - A Child of Fire (2023) WEB-DL-HEVC 2160p | 4K | SDR | D, P, A 20.74 GB ↑ 0 ↓ 0
2024-04-21 magnet Мятежная Луна, часть 2: Оставляющая шрамы / Rebel Moon - Part Two: The Scargiver (2024) WEB-DLRip-AVC от DoMiNo & селезень | P | Jaskier 1.46 GB ↑ 0 ↓ 0

Комментарии


Зарегистрируйтесь чтобы добавить комментарий
Торрент клиент
byTorrent - программа для загрузки торрент-файлов.

Скачать byTorrent.exe (1,5 МБ)

Скачать byTorrent.zip (0,6 МБ)

Поддержи torrent.by
российских рублей
(300 российских рублей это 4$)

Обратная связь rss

End game ©