↑↓torrent.by
Поиск
Логин:  Регистрация
Пароль:

Мятежная Луна, часть 2: Дарующая шрамы / Rebel Moon. Частина 2: Та, що лишає шрами / Rebel Moon - Part Two: The Scargiver (2024) WEB-DL-HEVC 2160p | 4K | HDR | Dolby Vision Profile 8 | D | Netflix | UKR

download Скачать торрент-файл   magnet Магнитная ссылка Размер: 11.75 GB Добавлен: 2024-04-24 05:00
Пиры будут получены из сети DHT
Последний сидер был замечен 2024-05-09 00:05
Информация о фильме Название: Мятежная Луна, часть 2: Дарующая шрамы Оригинальное название: Rebel Moon - Part Two: The Scargiver Год выхода: 2024 Жанр: фантастика, фэнтези, боевик, драма, приключения Режиссер: Зак Снайдер В ролях: Эд Скрейн, София Бутелла, Чарли Ханнэм, Джена Мэлоун, Энтони Хопкинс, Кэри Элвес, Джимон Хонсу, Михил Хёйсман, Стюарт Мартин, Пэ Ду-на О фильме: События фильма разворачиваются во вселенной, контролируемой коррумпированным правительством Праматери. Кора и выжившие воины готовятся пожертвовать всем, сражаясь плечом к плечу с народом Вельдта. Накануне битвы героям предстоит взглянуть в лицо своему прошлому и понять за что они должны биться. Страна: США Продолжительность: 02:03:54 Перевод: Профессиональный дублированный | Netflix (Украинский) Файл Кодек: H.265 Качество: WEB-DL 2160p Видео: HEVC, HDR, Dolby Vision, 3840x2160 (16:9), 24.000 fps, 12 Mb/s, 10 bit Аудио 1: E-AC3 JOC, 48.0 kHz, 6 ch, 768 kb/s | UKR Аудио 2: E-AC3 JOC, 48.0 kHz, 6 ch, 768 kb/s | ENG Субтитры: украинские (forced, full), английские (full, SDH)
[+] MIGeneral Unique ID : 160663253765912470119680428094328162314 (0x78DE9DFCD31201E78D89EA7ECADC480A) Complete name : Rebel Moon.Part.Two.The Scargiver (2024) WEB-DL 2160p HDR DV Ukr_Eng .mkv Format : Matroska Format version : Version 4 File size : 11.8 GiB Duration : 2 h 3 min Overall bit rate : 13.6 Mb/s Movie name : Rebel Moon - Part Two: The Scargiver (2024) Encoded date : UTC 2024-04-23 09:44:57 Writing application : mkvmerge v83.0 ('Circle Of Friends') 64-bit Writing library : libebml v1.4.5 + libmatroska v1.7.1 Cover : Yes Attachments : Cover.jpg Video ID : 1 Format : HEVC Format/Info : High Efficiency Video Coding Format profile : Main 10@L5@Main HDR format : Dolby Vision, Version 1.0, dvhe.08.06, BL+RPU, HDR10 compatible / SMPTE ST 2086, HDR10 compatible Codec ID : V_MPEGH/ISO/HEVC Duration : 2 h 3 min Bit rate : 12.0 Mb/s Width : 3 840 pixels Height : 2 160 pixels Display aspect ratio : 16:9 Frame rate mode : Constant Frame rate : 24.000 FPS Color space : YUV Chroma subsampling : 4:2:0 (Type 2) Bit depth : 10 bits Bits/(Pixel*Frame) : 0.060 Stream size : 10.4 GiB (89%) Default : Yes Forced : No Color range : Limited Color primaries : BT.2020 Transfer characteristics : PQ Matrix coefficients : BT.2020 non-constant Mastering display color primaries : Display P3 Mastering display luminance : min: 0.0001 cd/m2, max: 1000 cd/m2 Maximum Content Light Level : 405 cd/m2 Maximum Frame-Average Light Level : 367 cd/m2 Audio #1 ID : 2 Format : E-AC-3 JOC Format/Info : Enhanced AC-3 with Joint Object Coding Commercial name : Dolby Digital Plus with Dolby Atmos Codec ID : A_EAC3 Duration : 2 h 3 min Bit rate mode : Constant Bit rate : 768 kb/s Channel(s) : 6 channels Channel layout : L R C LFE Ls Rs Sampling rate : 48.0 kHz Frame rate : 31.250 FPS (1536 SPF) Compression mode : Lossy Stream size : 681 MiB (6%) Title : DUB (Postmodern / Netflix) Language : Ukrainian Service kind : Complete Main Default : Yes Forced : No Complexity index : 16 Number of dynamic objects : 15 Bed channel count : 1 channel Bed channel configuration : LFE Audio #2 ID : 3 Format : E-AC-3 JOC Format/Info : Enhanced AC-3 with Joint Object Coding Commercial name : Dolby Digital Plus with Dolby Atmos Codec ID : A_EAC3 Duration : 2 h 3 min Bit rate mode : Constant Bit rate : 768 kb/s Channel(s) : 6 channels Channel layout : L R C LFE Ls Rs Sampling rate : 48.0 kHz Frame rate : 31.250 FPS (1536 SPF) Compression mode : Lossy Stream size : 681 MiB (6%) Title : Original Language : English Service kind : Complete Main Default : No Forced : No Complexity index : 16 Number of dynamic objects : 15 Bed channel count : 1 channel Bed channel configuration : LFE Text #1 ID : 4 Format : UTF-8 Codec ID : S_TEXT/UTF8 Codec ID/Info : UTF-8 Plain Text Duration : 1 h 52 min Bit rate : 0 b/s Count of elements : 3 Stream size : 127 Bytes (0%) Title : Forced Language : Ukrainian Default : Yes Forced : Yes Text #2 ID : 5 Format : UTF-8 Codec ID : S_TEXT/UTF8 Codec ID/Info : UTF-8 Plain Text Duration : 2 h 0 min Bit rate : 49 b/s Count of elements : 850 Stream size : 43.9 KiB (0%) Title : Full Language : Ukrainian Default : No Forced : No Text #3 ID : 6 Format : UTF-8 Codec ID : S_TEXT/UTF8 Codec ID/Info : UTF-8 Plain Text Duration : 1 h 51 min Bit rate : 34 b/s Count of elements : 910 Stream size : 28.4 KiB (0%) Title : Full Language : English Default : No Forced : No Text #4 ID : 7 Format : UTF-8 Codec ID : S_TEXT/UTF8 Codec ID/Info : UTF-8 Plain Text Duration : 1 h 59 min Bit rate : 45 b/s Count of elements : 1378 Stream size : 39.7 KiB (0%) Title : SDH Language : English Default : No Forced : No
[+] Скриншоты

Всего файлов в раздаче: 1 
Rebel Moon.Part.Two.The Scargiver (2024) WEB-DL 2160p HDR DV Ukr_Eng [Hurtom].mkv11.75 GB

Похожие раздачи по запросу - Мятежная
2024-05-03 magnet Мятежная Луна, часть 2: Оставляющая шрамы / Rebel Moon - Part Two: The Scargiver (2024) WEB-DL HEVC 2160p | 4K | HDR | Dolby Vision Profile 8 | D 11.25 GB ↑ 0 ↓ 1
2024-04-29 magnet Мятежная Луна, часть 2: Оставляющая шрамы / Rebel Moon - Part Two: The Scargiver (2024) WEB-DL 1080p от New-Team | D, P 6.30 GB ↑ 0 ↓ 0
2024-04-29 magnet Мятежная Луна, часть 2: Оставляющая шрамы / Rebel Moon - Part Two: The Scargiver (2024) WEB-DLRip 720p от DoMiNo & селезень | D, P, P2 4.39 GB ↑ 0 ↓ 0
2024-04-28 magnet Мятежная Луна, часть 2: Оставляющая шрамы / Rebel Moon - Part Two: The Scargiver (2024) WEB-DLRip 720p от DoMiNo & селезень | D, P, P2 3.78 GB ↑ 0 ↓ 0
2024-04-28 magnet Мятежная Луна, часть 2: Оставляющая шрамы / Rebel Moon - Part Two: The Scargiver (2024) WEB-DL 1080p от EniaHD | D, P, P2, L 7.79 GB ↑ 1 ↓ 0
2024-04-23 magnet Мятежная Луна, часть 2: Оставляющая шрамы / Rebel Moon - Part Two: The Scargiver (2024) WEB-DL-HEVC 2160p | 4K | HDR | P, P2 12.50 GB ↑ 1 ↓ 0
2024-04-22 magnet Мятежная Луна, часть 1: Дитя огня / Rebel Moon: Part One - A Child of Fire (2023) WEB-DL-HEVC 2160p | 4K | SDR | D, P, A 20.74 GB ↑ 0 ↓ 0

Комментарии


Зарегистрируйтесь чтобы добавить комментарий
Торрент клиент
byTorrent - программа для загрузки торрент-файлов.

Скачать byTorrent.exe (1,5 МБ)

Скачать byTorrent.zip (0,6 МБ)

Поддержи torrent.by
российских рублей
(300 российских рублей это 4$)

Обратная связь rss

End game ©