↑↓torrent.by
Поиск
Логин:  Регистрация
Пароль:

Лето. Нулевые (2023) WEB-DLRip от ExKinoRay | KION

download Скачать торрент-файл   magnet Магнитная ссылка Размер: 741.31 MB Добавлен: 2024-04-24 05:00
Пиры будут получены из сети DHT
Последний сидер был замечен 2024-05-21 17:03
Информация о фильме Название: Лето. Нулевые Год выхода: 2023 Жанр: комедия Режиссер: Сергей Илютин В ролях: Тимофей Кочнев, Кирилл Доронин, Иван Федоров, Роман Маякин, Анна Котова, Денис Шведов, Анастасия Цыбульская, Ольга Лапшина, Михаил Иванов, Василий Шевцов О фильме: Маленький городок на Волге, середина 2000-х. В жизни находчивого Сашки наступает пятнадцатое лето: вновь дурачества с друзьями, вновь походы в местную «игровуху» и первые летние подработки. Всё идёт своим чередом, но Сашка ещё не знает — именно в это лето ему придётся взять ответственность за чужую жизнь, встретить любовь и оказаться втянутым в опасные неприятности. Страна: Россия Студия: Киностудия Соль Продолжительность: 01:28:33 Перевод: Не требуется - KION Файл Кодек: XviD Качество: WEB-DLRip Видео: 624x352 (1.77:1), 24 fps, XviD build 67 ~1030 kbps avg, 0.20 bit/pixel Звук: 48 kHz, MP3, 2 ch, 128 kbps avg Субтитры: Отсутствуют
[+] MediaInfoGeneral Complete name : D:Лето. Нулевые.2023.WEB-DLRip.by.ExKinoRay & Shkiper.avi Format : AVI Format/Info : Audio Video Interleave Format settings : BitmapInfoHeader / WaveFormatEx File size : 741 MiB Duration : 1 h 28 min Overall bit rate : 1 170 kb/s Frame rate : 24.000 FPS Movie name : Leto.Nulevyie.2023.WEB-DLRip.by.ExKinoRay & Shkiper Writing application : Lavf58.29.100 Video ID : 0 Format : MPEG-4 Visual Format profile : Advanced Simple@L5 Format settings : BVOP1 / Custom Matrix Format settings, BVOP : 1 Format settings, QPel : No Format settings, GMC : No warppoints Format settings, Matrix : Custom Codec ID : XVID Codec ID/Hint : XviD Duration : 1 h 28 min Bit rate : 1 030 kb/s Width : 624 pixels Height : 352 pixels Display aspect ratio : 16:9 Frame rate : 24.000 FPS Color space : YUV Chroma subsampling : 4:2:0 Bit depth : 8 bits Scan type : Progressive Compression mode : Lossy Bits/(Pixel*Frame) : 0.195 Stream size : 652 MiB (88%) Writing library : XviD 67 Audio ID : 1 Format : MPEG Audio Format version : Version 1 Format profile : Layer 3 Format settings : Joint stereo / MS Stereo Codec ID : 55 Codec ID/Hint : MP3 Duration : 1 h 28 min Bit rate mode : Constant Bit rate : 128 kb/s Channel(s) : 2 channels Sampling rate : 48.0 kHz Compression mode : Lossy Stream size : 81.1 MiB (11%) Alignment : Aligned on interleaves Interleave, duration : 24 ms (0.58 video frame) Title : Original (KION) Writing library : LAME3.100ª
[+] Скриншоты
Релиз от: Рип изготовил:

Всего файлов в раздаче: 1 
Лето. Нулевые.2023.WEB-DLRip.by.ExKinoRay & Shkiper.avi741.31 MB

Похожие раздачи по запросу - Лето
2024-05-08 magnet Между нами лето (2024) WEB-DLRip от MegaPeer 1.46 GB ↑ 0 ↓ 0
2024-05-08 magnet Между нами лето (2024) WEB-DL 720p 2.43 GB ↑ 0 ↓ 0
2024-05-08 magnet Между нами лето (2024) WEB-DL 1080p 4.34 GB ↑ 0 ↓ 1
2024-05-06 magnet Мое итальянское лето / Gli anni belli (2022) WEB-DLRip-AVC от DoMiNo & селезень | P 1.46 GB ↑ 0 ↓ 0
2024-04-21 magnet Лето. Нулевые (2024) WEB-DLRip-AVC от New-Team 1.46 GB ↑ 0 ↓ 0
2024-04-20 magnet Лето. Нулевые (2023) WEB-DL 1080p от ELEKTRI4KA | KION 4.17 GB ↑ 0 ↓ 0
2024-04-20 magnet Лето. Нулевые (2023) WEB-DLRip от ELEKTRI4KA | KION 1.46 GB ↑ 0 ↓ 0

Комментарии


Зарегистрируйтесь чтобы добавить комментарий
Торрент клиент
byTorrent - программа для загрузки торрент-файлов.

Скачать byTorrent.exe (1,5 МБ)

Скачать byTorrent.zip (0,6 МБ)

Поддержи torrent.by
российских рублей
(300 российских рублей это 4$)

Обратная связь rss

End game ©