↑↓torrent.by
Поиск
Логин:  Регистрация
Пароль:

Ключ к сердцу / Key to Love (2023) WEB-DL 1080p от ELEKTRI4KA | P

download Скачать торрент-файл   magnet Магнитная ссылка Размер: 3.48 GB Добавлен: 2024-04-24 05:00
Пиры будут получены из сети DHT
Последний сидер был замечен 2024-05-09 16:38
«Девушка-букинист и богатый наследник пытаются разгадать тайну ключа в книге. Легкий ромком с элементами приключений» Информация о фильме Название: Ключ к сердцу Оригинальное название: Key to Love Год выхода: 2023 Жанр: драма, мелодрама Режиссер: Дуглас Манро В ролях: Кори Севьер, Алиша Йосипович, Мишель Винеке, Хезер Дексхаймер, Бад Класки, Дженни Стил, Энн Мюллер, Диана-Мари Штольц, Кара Азеведо О фильме: Владелица букинистического магазина Саманта получает выгодный заказ — разобрать библиотеку покойного Роберта Макгро. Заядлый коллекционер оставил множество редких томов и странную загадку: в одной из книг оказался спрятан ключ, но нет и малейшей подсказки от какого замка. Саманта передает находку внуку Роберта Джошуа. Молодой человек еще вчера бедствовал и был вынужден работать моделью для обложек бульварных романов. Теперь он обладатель огромного состояния, но теперь парня больше интересует, как найти ключ к сердцу Саманты. Выпущено: Канада / Chaos, a Film Company Inc. Продолжительность: 01:26:37 Озвучивание: Профессиональное (многоголосое) | Официальное Файл Формат: MKV Качество: WEB-DL 1080p Видео: MPEG-4 AVC, 5000 Kb/s, 1920x1080 Аудио: Russian: AC3, 384 Kb/s (6 ch) / E-AC3, 384 Kb/s (6 ch) Субтитры: Нет Дополнительно: Нeт Релиз группы:  | Мы в Telegram:
[+] Инфо-файл:Complete name: Klyuch.k.serdtsu.2023.WEB-DL.1080p.ELEKTRI4KA.mkv Format: Matroska Format version: Version 4 File size: 3.48 GiB Duration: 1 h 26 min Overall bit rate: 5 758 kb/s Movie name: Klyuch.k.serdtsu.2023.WEB-DL.1080p.ELEKTRI4KA Encoded date: UTC 2024-04-23 17:01:20 Writing application: mkvmerge v8.3.0 ('Over the Horizon') 64bit Writing library: libebml v1.3.1 + libmatroska v1.4.2 Video ID: 1 Format: AVC Format/Info: Advanced Video Codec Format profile: High@L4 Format settings: CABAC / 3 Ref Frames Format settings, CABAC: Yes Format settings, RefFrames: 3 frames Codec ID: V_MPEG4/ISO/AVC Duration: 1 h 26 min Bit rate: 5 000 kb/s Width: 1 920 pixels Height: 1 080 pixels Display aspect ratio: 16:9 Frame rate mode: Constant Frame rate: 25.000 FPS Color space: YUV Chroma subsampling: 4:2:0 Bit depth: 8 bits Scan type: Progressive Bits/(Pixel*Frame): 0.096 Stream size: 3.02 GiB (87%) Writing library: x264 core 164 r3095 baee400 Encoding settings: cabac=1 / ref=4 / deblock=1:-1:-1 / analyse=0x3:0x133 / me=umh / subme=9 / psy=1 / psy_rd=0.40:1.00 / mixed_ref=1 / me_range=24 / chroma_me=1 / trellis=0 / 8x8dct=1 / cqm=0 / deadzone=21, 11 / fast_pskip=1 / chroma_qp_offset=-2 / threads=3 / lookahead_threads=1 / sliced_threads=0 / nr=0 / decimate=1 / interlaced=0 / bluray_compat=0 / stitchable=1 / constrained_intra=0 / bframes=8 / b_pyramid=1 / b_adapt=0 / b_bias=0 / direct=3 / weightb=1 / open_gop=0 / weightp=2 / keyint=75 / keyint_min=38 / scenecut=0 / intra_refresh=0 / rc_lookahead=40 / rc=2pass / mbtree=1 / bitrate=5000 / ratetol=1.0 / qcomp=0.80 / qpmin=1 / qpmax=69 / qpstep=4 / cplxblur=20.0 / qblur=0.5 / vbv_maxrate=7500 / vbv_bufsize=10000 / nal_hrd=none / filler=0 / ip_ratio=1.40 / aq=1:1.00 Default: Yes Forced: No Color range: Limited Color primaries: BT.709 Transfer characteristics: BT.709 Matrix coefficients: BT.709 Audio #1 ID: 2 Format: AC-3 Format/Info: Audio Coding 3 Commercial name: Dolby Digital Codec ID: A_AC3 Duration: 1 h 26 min Bit rate mode: Constant Bit rate: 384 kb/s Channel(s): 6 channels Channel layout: L R C LFE Ls Rs Sampling rate: 48.0 kHz Frame rate: 31.250 FPS (1536 SPF) Bit depth: 16 bits Compression mode: Lossy Stream size: 238 MiB (7%) Title: MVO AC3 Language: Russian Service kind: Complete Main Default: Yes Forced: Yes Audio #2 ID: 3 Format: E-AC-3 Format/Info: Enhanced AC-3 Commercial name: Dolby Digital Plus Codec ID: A_EAC3 Duration: 1 h 26 min Bit rate mode: Constant Bit rate: 384 kb/s Channel(s): 6 channels Channel layout: L R C LFE Ls Rs Sampling rate: 48.0 kHz Frame rate: 31.250 FPS (1536 SPF) Compression mode: Lossy Stream size: 238 MiB (7%) Title: MVO EAC3 Language: Russian Service kind: Complete Main Default: No Forced: No
[+] Скриншоты

Всего файлов в раздаче: 1 
Klyuch.k.serdtsu.2023.WEB-DL.1080p.ELEKTRI4KA.mkv3.48 GB

Похожие раздачи по запросу - Ключ
2024-05-16 magnet Ключ от всех дверей / The Skeleton Key (2005) HDRip от Scarabey 744.26 MB ↑ 0 ↓ 0
2024-04-24 magnet Ключ к сердцу / Key to Love (2023) WEB-DLRip от ELEKTRI4KA | P 1.46 GB ↑ 0 ↓ 0
2023-11-10 magnet Васильев Андрей - Агентство ключ 1. Легкий заказ (2023) МР3 599.91 MB ↑ 0 ↓ 0

Комментарии


Зарегистрируйтесь чтобы добавить комментарий
Торрент клиент
byTorrent - программа для загрузки торрент-файлов.

Скачать byTorrent.exe (1,5 МБ)

Скачать byTorrent.zip (0,6 МБ)

Поддержи torrent.by
российских рублей
(300 российских рублей это 4$)

Обратная связь rss

End game ©