↑↓torrent.by
Поиск
Логин:  Регистрация
Пароль:

Артур, ты король / Arthur the King (2024) WEB-DL 1080p от New-Team | L | Soundmasters

download Скачать торрент-файл   magnet Магнитная ссылка Размер: 6.05 GB Раздают: 0 Качают: 1 Добавлен: 2024-04-24 05:00
Пиры будут получены из сети DHT
Последний сидер был замечен 2024-05-13 19:09
Артур, ты король / Arthur the King Год выпуска: 2024 Выпущено: США / Lionsgate, Tooley Productions Жанр: драма, приключения Режиссер: Саймон Селлан Джонс / Simon Cellan Jones В ролях: Марк Уолберг, Симу Лю, Джульет Райлэнс, Натали Эммануэль, Али Сулиман, Беар Гриллс, Пол Гилфойл, Роб Коллинз, Карлтон Бёрд, Сиси Валентина О фильме: Это было последнее соревнование капитана по приключенческим гонкам Майкла Линднорда, он был полон решимости ничему не позволить встать у него на пути. Собрав первоклассную команду, он не мог и представить, что в 700-километровом забеге у них появится неожиданный попутчик - пес по кличке Артур, встреча с которым изменит не только исход гонки, но и их жизнь. Продолжительность: 01:47:02 Перевод: Любительский (многоголосый, закадровый) | Soundmasters Субтитры: Английские Раздача от: Автор релиза: JNS82. Формат: MKV Качество: WEB-DL 1080p | AMZN Видео: MPEG-4 AVC, x264, 1920x800, 6729 Кбит/с, (2,40:1), 23,976 fps Аудио #1: 48 kHz, AC3 Dolby Digital, 3/2 (L,C,R,l,r) + LFE ch, ~ 448 kbps | RUS | Аудио #2: 48 kHz, E-AC3 JOC Dolby Digital, 3/2 (L,C,R,l,r) + 768 LFE ch, ~ kbps | ENG |
[+] MediaInfoОбщее Уникальный идентификатор : 88457398848811960360211790350801403627 (0x428C467BAB7FC33032FD13F0F9FF7EEB) Полное имя : D:TorrentsArthur.the.King.2024.1080p.AMZN_от New-Team.mkv Формат : Matroska Версия формата : Version 4 Размер файла : 6,05 Гбайт Продолжительность : 1 ч. 47 мин. Общий битрейт : 8 098 Кбит/сек Частота кадров : 23,976 кадра/сек Название фильма : Arthur.the.King.2024.1080p.AMZN_от New-Team Дата кодирования : 2024-04-23 15:12:30 UTC Программа кодирования : mkvmerge v79.0 ('Funeral Pyres') 64-bit Библиотека кодирования : libebml v1.4.4 + libmatroska v1.7.1 Видео Идентификатор : 1 Формат : AVC Формат/Информация : Advanced Video Codec Профиль формата : High@L4 Настройки формата : CABAC / 4 Ref Frames Параметр CABAC формата : Да Параметр RefFrames формата : 4 кадра Идентификатор кодека : V_MPEG4/ISO/AVC Продолжительность : 1 ч. 47 мин. Вид битрейта : Постоянный Битрейт : 6 879 Кбит/сек Номинальный битрейт : 10 000 Кбит/сек Ширина : 1 920 пикселей Высота : 800 пикселей Соотношение сторон дисплея : 2,40:1 Режим частоты кадров : Постоянный Частота кадров : 23,976 (24000/1001) кадра/сек Цветовое пространство : YUV Цветовая субдискретизация : 4:2:0 Битовая глубина : 8 бит Тип развёртки : Прогрессивная Бит/(Пиксели*Кадры) : 0.187 Размер потока : 5,14 Гбайт (85%) Язык : Английский (US) По умолчанию : Да Принудительно : Нет Цветовой диапазон : Limited Основные цвета : BT.709 Характеристики трансфера : BT.709 Коэффициенты матрицы : BT.709 Аудио #1 Идентификатор : 2 Формат : AC-3 Формат/Информация : Audio Coding 3 Коммерческое название : Dolby Digital Идентификатор кодека : A_AC3 Продолжительность : 1 ч. 47 мин. Вид битрейта : Постоянный Битрейт : 448 Кбит/сек Канал(-ы) : 6 каналов Расположение каналов : L R C LFE Ls Rs Частота дискретизации : 48,0 КГц Частота кадров : 31,250 кадров/сек (1536 SPF) Метод сжатия : С потерями Размер потока : 343 Мбайт (6%) Заголовок : MVO - Rus Язык : Русский Вид сервиса : Complete Main По умолчанию : Да Принудительно : Нет Нормализация звука речи : -31 dB cmixlev : -4.5 dB surmixlev : -6 dB dialnorm_Average : -31 dB dialnorm_Minimum : -31 dB dialnorm_Maximum : -31 dB Аудио #2 Идентификатор : 3 Формат : E-AC-3 JOC Формат/Информация : Enhanced AC-3 with Joint Object Coding Коммерческое название : Dolby Digital Plus with Dolby Atmos Идентификатор кодека : A_EAC3 Продолжительность : 1 ч. 47 мин. Вид битрейта : Постоянный Битрейт : 768 Кбит/сек Канал(-ы) : 6 каналов Расположение каналов : L R C LFE Ls Rs Частота дискретизации : 48,0 КГц Частота кадров : 31,250 кадров/сек (1536 SPF) Метод сжатия : С потерями Задержка видео : 16 мс. Размер потока : 588 Мбайт (9%) Заголовок : Original Язык : Английский Вид сервиса : Complete Main По умолчанию : Нет Принудительно : Нет Показатель сложности : 16 Количество динамических объектов : 15 Число каналов бэда : 1 канал Конфигурация каналов бэда : LFE Нормализация звука речи : -27 dB compr : -0.28 dB dialnorm_Average : -27 dB dialnorm_Minimum : -27 dB dialnorm_Maximum : -27 dB Текст #1 Идентификатор : 4 Формат : UTF-8 Идентификатор кодека : S_TEXT/UTF8 Идентификатор кодека/Информация : UTF-8 Plain Text Продолжительность : 1 ч. 40 мин. Битрейт : 75 бит/сек Частота кадров : 0,324 кадр/сек Число элементов : 1952 Размер потока : 55,8 КиБ (0%) Язык : Английский (US) По умолчанию : Нет Принудительно : Нет Текст #2 Идентификатор : 5 Формат : UTF-8 Идентификатор кодека : S_TEXT/UTF8 Идентификатор кодека/Информация : UTF-8 Plain Text Продолжительность : 1 ч. 45 мин. Битрейт : 86 бит/сек Частота кадров : 0,356 кадр/сек Число элементов : 2243 Размер потока : 66,8 КиБ (0%) Заголовок : SDH Язык : Английский (US) По умолчанию : Нет Принудительно : Нет Меню 00:00:00.000 : en:Scene 1 01:39:12.000 : en:Outro 01:39:07.750 : en:End Credits

Всего файлов в раздаче: 1 
Arthur.the.King.2024.1080p.AMZN_от New-Team.mkv6.05 GB

Похожие раздачи по запросу - Артур
Сегодня magnet Артур, ты король / Arthur the King (2024) BDRip-AVC от DoMiNo & селезень | D | Мосфильм-Мастер 744.70 MB ↑ 0 ↓ 2
2024-05-21 magnet Артур, ты король / Arthur the King (2024) BDRip 1080p от селезень | D | Мосфильм-Мастер 8.43 GB ↑ 0 ↓ 5
2024-05-21 magnet Артур, ты король / Arthur the King (2024) BDRip 720p от DoMiNo & селезень | D | Мосфильм-Мастер 3.62 GB ↑ 0 ↓ 4
2024-05-21 magnet Артур, ты король / Arthur the King (2024) BDRip 1080p от MegaPeer | D 7.33 GB ↑ 0 ↓ 2
2024-05-21 magnet Артур, ты король / Arthur the King (2024) BDRip 720p от MegaPeer | D 3.40 GB ↑ 0 ↓ 0
2024-05-21 magnet Артур, ты король / Arthur the King (2024) BDRip от MegaPeer | D 1.46 GB ↑ 0 ↓ 0
2024-05-21 magnet Артур, ты король / Arthur the King (2024) BDRip-AVC от New-Team | D, L 2.18 GB ↑ 0 ↓ 0

Комментарии


Зарегистрируйтесь чтобы добавить комментарий
Торрент клиент
byTorrent - программа для загрузки торрент-файлов.

Скачать byTorrent.exe (1,5 МБ)

Скачать byTorrent.zip (0,6 МБ)

Поддержи torrent.by
российских рублей
(300 российских рублей это 4$)

Обратная связь rss

End game ©