↑↓torrent.by
Поиск
Логин:  Регистрация
Пароль:

Praying Mantis - Defiance [24-bit Hi-Res] (2024) FLAC

download Скачать торрент-файл   magnet Магнитная ссылка Размер: 1001.22 MB Добавлен: 2024-04-24 11:00
Пиры будут получены из сети DHT
Последний сидер был замечен 2024-04-25 16:52
Название: Defiance Исполнитель: Praying Mantis Год: 2024 Жанр: Metal, Hard-Rock Издатель (лейбл): Frontiers Records s.r.l. Продолжительность: 00:46:45 Формат/Кодек: FLAC Тип рипа: Tracks Битрейт аудио: Lossless Разрядность: 24 Bit/96 kHz
[+] Трек-лист 01. From The Start (00:04:27) 02. Defiance (00:04:06) 03. Feelin' Lucky (00:03:46) 04. I Surrender (00:03:40) 05. Forever In My Heart (00:04:33) 06. Never Can Say Goodbye (00:04:10) 07. One Heart (00:04:32) 08. Give It Up (00:03:35) 09. Nightswim (00:03:42) 10. Standing Tall (00:05:18) 11. Let's See (00:04:56)
[+] DRM foobar2000 1.5.5 / Замер динамического диапазона (DR) 1.1.1 ------------------------------------------------------------------------------- Анализ: Praying Mantis / Defiance -------------------------------------------------------------------------------- DR Пики RMS Продолжительность трека -------------------------------------------------------------------------------- DR6 -0.20 дБ -7.46 дБ 4:27 01-From The Start DR6 -0.20 дБ -7.58 дБ 4:06 02-Defiance DR7 -0.20 дБ -8.21 дБ 3:46 03-Feelin' Lucky DR6 -0.20 дБ -7.39 дБ 3:40 04-I Surrender DR7 -0.20 дБ -9.12 дБ 4:33 05-Forever In My Heart DR7 -0.20 дБ -8.64 дБ 4:10 06-Never Can Say Goodbye DR7 -0.20 дБ -8.47 дБ 4:32 07-One Heart DR7 -0.20 дБ -7.65 дБ 3:35 08-Give It Up DR8 -0.20 дБ -9.45 дБ 3:42 09-Nightswim DR6 -0.20 дБ -7.85 дБ 5:18 10-Standing Tall DR7 -0.20 дБ -7.77 дБ 4:56 11-Let's See -------------------------------------------------------------------------------- Количество треков: 11 Реальные значения DR: DR7 Частота: 96000 Гц Каналов: 2 Разрядность: 24 Битрейт: 2974 кбит/с Кодек: FLAC ================================================================================
Время раздачи: 24/7 (минимум до появления первых 3-5 скачавших, на раздачи не возвращаюсь) Первое правило участника файлообмена: "Скачал сам - дай скачать другому!"

Всего файлов в раздаче: 12 
01. From The Start.flac96.12 MB
02. Defiance.flac91.60 MB
03. Feelin' Lucky.flac80.32 MB
04. I Surrender.flac81.19 MB
05. Forever In My Heart.flac94.81 MB
06. Never Can Say Goodbye.flac88.82 MB
07. One Heart.flac95.72 MB
08. Give It Up.flac78.00 MB
09. Nightswim.flac73.65 MB
10. Standing Tall.flac114.69 MB
Показать все файлы

Кто качает (только для создателя раздачи и модераторов): Локальные пиры отсутствуют

Комментарии


Зарегистрируйтесь чтобы добавить комментарий
Торрент клиент
byTorrent - программа для загрузки торрент-файлов.

Скачать byTorrent.exe (1,5 МБ)

Скачать byTorrent.zip (0,6 МБ)

Поддержи torrent.by
российских рублей
(300 российских рублей это 4$)

Обратная связь rss

End game ©