↑↓torrent.by
Поиск
Логин:  Регистрация
Пароль:

Разбойники: В поисках золота / Бандити: У пошуках золота / Briganti [S01] (2024) WEB-DL 1080p | D | Netflix | UKR

download Скачать торрент-файл   magnet Магнитная ссылка Размер: 12.70 GB Добавлен: 2024-04-24 11:00
Пиры будут получены из сети DHT
Последний сидер был замечен 2024-05-05 19:16
Информация о фильме Название: Разбойники: В поисках золота Оригинальное название: Briganti Год выхода: 2024 Жанр: драма, приключения, история Режиссер: Antonio Le Fosse, Стивен Ст. Леджер, Nicola Sorcinelli В ролях: Матильда Анна Ингрид Лутс, Микела Де Росси, Лоренцо де Мур, Федерико Иелапи, Эрнесто Д’Ардженио, Ивана Лотито, Марлон Жубер, Джузеппе Ло Пикколо, Алессио Пратико, Леон Де Ла Валле О фильме: В XIX веке, когда юг Италии становится землей бандитов, Филомена бежит от богатой, но безрадостной жизни, чтобы отправиться на рискованную охоту за сокровищами. Страна: Италия Студия: Fabula Pictures Продолжительность: 6x ~ 00:45:00 Перевод: Профессиональный дублированный | Le Doyen / Netflix (Украинский) Файл Кодек: x.264 Качество: WEB-DL 1080p Видео: AVC, 1920x1080 (16:9), 24.000 fps, 4637 kb/s Аудио 1: E-AC3, 48.0 kHz, 6 ch, 640 kb/s | UKR Аудио 2: E-AC3, 48.0 kHz, 6 ch, 640 kb/s | ITA Субтитры: украинские (forced, full), итальянские (forced, full, SDH), английские (forced, full, SDH), Multi Трейлер
[+] MIGeneral Unique ID : 241792061713729040344278491319409170646 (0xB5E7750ADC25DBAB872FDED7BEC9D8D6) Complete name : Briganti S01E01 (2024) WEB-DL 1080p .mkv Format : Matroska Format version : Version 4 File size : 1.92 GiB Duration : 46 min 29 s Overall bit rate mode : Variable Overall bit rate : 5 922 kb/s Frame rate : 24.000 FPS Encoded date : 2024-04-23 16:28:16 UTC Writing application : mkvmerge v83.0 ('Circle Of Friends') 64-bit Writing library : libebml v1.4.5 + libmatroska v1.7.1 Cover : Yes Attachments : cover.jpg Video ID : 1 Format : AVC Format/Info : Advanced Video Codec Format profile : Main@L4 Format settings : CABAC / 3 Ref Frames Format settings, CABAC : Yes Format settings, Reference frames : 3 frames Codec ID : V_MPEG4/ISO/AVC Duration : 46 min 29 s Bit rate mode : Variable Bit rate : 4 637 kb/s Nominal bit rate : 5 000 kb/s Maximum bit rate : 7 500 kb/s Width : 1 920 pixels Height : 1 080 pixels Display aspect ratio : 16:9 Frame rate mode : Constant Frame rate : 24.000 FPS Color space : YUV Chroma subsampling : 4:2:0 Bit depth : 8 bits Scan type : Progressive Bits/(Pixel*Frame) : 0.093 Stream size : 1.51 GiB (78%) Writing library : x264 core 148 r2727 7d026e8 Encoding settings : cabac=1 / ref=3 / deblock=1:0:0 / analyse=0x1:0x111 / me=umh / subme=10 / psy=1 / psy_rd=1.00:0.00 / mixed_ref=1 / me_range=24 / chroma_me=1 / trellis=2 / 8x8dct=0 / cqm=0 / deadzone=21,11 / fast_pskip=1 / chroma_qp_offset=-2 / threads=6 / lookahead_threads=1 / sliced_threads=0 / nr=0 / decimate=1 / interlaced=0 / bluray_compat=0 / stitchable=1 / constrained_intra=0 / bframes=2 / b_pyramid=0 / b_adapt=2 / b_bias=0 / direct=3 / weightb=1 / open_gop=0 / weightp=2 / keyint=240 / keyint_min=121 / scenecut=0 / intra_refresh=0 / rc_lookahead=48 / rc=2pass / mbtree=1 / bitrate=5000 / ratetol=1.0 / qcomp=0.50 / qpmin=6 / qpmax=51 / qpstep=4 / cplxblur=20.0 / qblur=0.5 / vbv_maxrate=7500 / vbv_bufsize=10000 / nal_hrd=vbr / filler=0 / ip_ratio=1.40 / aq=1:1.00 Language : Italian Default : Yes Forced : No Audio #1 ID : 2 Format : E-AC-3 Format/Info : Enhanced AC-3 Commercial name : Dolby Digital Plus Codec ID : A_EAC3 Duration : 46 min 29 s Bit rate mode : Constant Bit rate : 640 kb/s Channel(s) : 6 channels Channel layout : L R C LFE Ls Rs Sampling rate : 48.0 kHz Frame rate : 31.250 FPS (1536 SPF) Compression mode : Lossy Stream size : 213 MiB (11%) Language : Ukrainian Service kind : Complete Main Default : Yes Forced : No Audio #2 ID : 3 Format : E-AC-3 Format/Info : Enhanced AC-3 Commercial name : Dolby Digital Plus Codec ID : A_EAC3 Duration : 46 min 29 s Bit rate mode : Constant Bit rate : 640 kb/s Channel(s) : 6 channels Channel layout : L R C LFE Ls Rs Sampling rate : 48.0 kHz Frame rate : 31.250 FPS (1536 SPF) Compression mode : Lossy Stream size : 213 MiB (11%) Language : Italian Service kind : Complete Main Default : No Forced : No Text #1 ID : 4 Format : UTF-8 Codec ID : S_TEXT/UTF8 Codec ID/Info : UTF-8 Plain Text Duration : 44 min 22 s Bit rate : 1 b/s Frame rate : 0.005 FPS Count of elements : 13 Stream size : 472 Bytes (0%) Title : Forced Language : Ukrainian Default : Yes Forced : Yes Text #2 ID : 5 Format : UTF-8 Codec ID : S_TEXT/UTF8 Codec ID/Info : UTF-8 Plain Text Duration : 44 min 22 s Bit rate : 52 b/s Frame rate : 0.143 FPS Count of elements : 382 Stream size : 17.1 KiB (0%) Language : Ukrainian Default : No Forced : No Text #3 ID : 6 Format : UTF-8 Codec ID : S_TEXT/UTF8 Codec ID/Info : UTF-8 Plain Text Duration : 44 min 22 s Bit rate : 53 b/s Frame rate : 0.149 FPS Count of elements : 396 Stream size : 17.4 KiB (0%) Language : Ukrainian Default : No Forced : No Text #4 ID : 7 Format : UTF-8 Codec ID : S_TEXT/UTF8 Codec ID/Info : UTF-8 Plain Text Duration : 38 min 9 s Bit rate : 8 b/s Frame rate : 0.034 FPS Count of elements : 78 Stream size : 2.39 KiB (0%) Title : Forced Language : Italian Default : No Forced : No Text #5 ID : 8 Format : UTF-8 Codec ID : S_TEXT/UTF8 Codec ID/Info : UTF-8 Plain Text Duration : 42 min 10 s Bit rate : 38 b/s Frame rate : 0.155 FPS Count of elements : 392 Stream size : 11.8 KiB (0%) Language : Italian Default : No Forced : No Text #6 ID : 9 Format : UTF-8 Codec ID : S_TEXT/UTF8 Codec ID/Info : UTF-8 Plain Text Duration : 42 min 13 s Bit rate : 48 b/s Frame rate : 0.202 FPS Count of elements : 512 Stream size : 14.9 KiB (0%) Title : SDH Language : Italian Default : No Forced : No Text #7 ID : 10 Format : UTF-8 Codec ID : S_TEXT/UTF8 Codec ID/Info : UTF-8 Plain Text Duration : 44 min 25 s Bit rate : 0 b/s Frame rate : 0.004 FPS Count of elements : 11 Stream size : 271 Bytes (0%) Title : Forced Language : English Default : No Forced : No Text #8 ID : 11 Format : UTF-8 Codec ID : S_TEXT/UTF8 Codec ID/Info : UTF-8 Plain Text Duration : 41 min 35 s Bit rate : 25 b/s Frame rate : 0.165 FPS Count of elements : 411 Stream size : 7.62 KiB (0%) Language : English Default : No Forced : No Text #9 ID : 12 Format : UTF-8 Codec ID : S_TEXT/UTF8 Codec ID/Info : UTF-8 Plain Text Duration : 44 min 58 s Bit rate : 49 b/s Frame rate : 0.210 FPS Count of elements : 566 Stream size : 16.2 KiB (0%) Title : SDH Language : English Default : No Forced : No Text #10 ID : 13 Format : UTF-8 Codec ID : S_TEXT/UTF8 Codec ID/Info : UTF-8 Plain Text Duration : 41 min 35 s Bit rate : 59 b/s Frame rate : 0.166 FPS Count of elements : 413 Stream size : 18.0 KiB (0%) Language : Arabic Default : No Forced : No Text #11 ID : 14 Format : UTF-8 Codec ID : S_TEXT/UTF8 Codec ID/Info : UTF-8 Plain Text Duration : 44 min 23 s Bit rate : 31 b/s Frame rate : 0.152 FPS Count of elements : 404 Stream size : 10.3 KiB (0%) Language : Czech Default : No Forced : No Text #12 ID : 15 Format : UTF-8 Codec ID : S_TEXT/UTF8 Codec ID/Info : UTF-8 Plain Text Duration : 44 min 21 s Bit rate : 31 b/s Frame rate : 0.145 FPS Count of elements : 385 Stream size : 10.2 KiB (0%) Language : Danish Default : No Forced : No Text #13 ID : 16 Format : UTF-8 Codec ID : S_TEXT/UTF8 Codec ID/Info : UTF-8 Plain Text Duration : 44 min 25 s Bit rate : 34 b/s Frame rate : 0.144 FPS Count of elements : 384 Stream size : 11.4 KiB (0%) Language : German Default : No Forced : No Text #14 ID : 17 Format : UTF-8 Codec ID : S_TEXT/UTF8 Codec ID/Info : UTF-8 Plain Text Duration : 44 min 25 s Bit rate : 55 b/s Frame rate : 0.152 FPS Count of elements : 404 Stream size : 17.9 KiB (0%) Language : Greek Default : No Forced : No Text #15 ID : 18 Format : UTF-8 Codec ID : S_TEXT/UTF8 Codec ID/Info : UTF-8 Plain Text Duration : 44 min 26 s Bit rate : 32 b/s Frame rate : 0.150 FPS Count of elements : 400 Stream size : 10.6 KiB (0%) Title : Latin American Language : Spanish (Latin America) Default : No Forced : No Text #16 ID : 19 Format : UTF-8 Codec ID : S_TEXT/UTF8 Codec ID/Info : UTF-8 Plain Text Duration : 44 min 25 s Bit rate : 33 b/s Frame rate : 0.154 FPS Count of elements : 410 Stream size : 10.8 KiB (0%) Language : Spanish (ES) Default : No Forced : No Text #17 ID : 20 Format : UTF-8 Codec ID : S_TEXT/UTF8 Codec ID/Info : UTF-8 Plain Text Duration : 44 min 25 s Bit rate : 32 b/s Frame rate : 0.138 FPS Count of elements : 367 Stream size : 10.4 KiB (0%) Language : Finnish Default : No Forced : No Text #18 ID : 21 Format : UTF-8 Codec ID : S_TEXT/UTF8 Codec ID/Info : UTF-8 Plain Text Duration : 44 min 25 s Bit rate : 34 b/s Frame rate : 0.151 FPS Count of elements : 402 Stream size : 11.3 KiB (0%) Language : Filipino Default : No Forced : No Text #19 ID : 22 Format : UTF-8 Codec ID : S_TEXT/UTF8 Codec ID/Info : UTF-8 Plain Text Duration : 44 min 18 s Bit rate : 36 b/s Frame rate : 0.151 FPS Count of elements : 402 Stream size : 11.7 KiB (0%) Language : French Default : No Forced : No Text #20 ID : 23 Format : UTF-8 Codec ID : S_TEXT/UTF8 Codec ID/Info : UTF-8 Plain Text Duration : 44 min 23 s Bit rate : 54 b/s Frame rate : 0.147 FPS Count of elements : 391 Stream size : 17.8 KiB (0%) Language : Hebrew Default : No Forced : No Text #21 ID : 24 Format : UTF-8 Codec ID : S_TEXT/UTF8 Codec ID/Info : UTF-8 Plain Text Duration : 44 min 21 s Bit rate : 30 b/s Frame rate : 0.145 FPS Count of elements : 386 Stream size : 9.86 KiB (0%) Language : Croatian Default : No Forced : No Text #22 ID : 25 Format : UTF-8 Codec ID : S_TEXT/UTF8 Codec ID/Info : UTF-8 Plain Text Duration : 44 min 25 s Bit rate : 32 b/s Frame rate : 0.147 FPS Count of elements : 391 Stream size : 10.5 KiB (0%) Language : Hungarian Default : No Forced : No Text #23 ID : 26 Format : UTF-8 Codec ID : S_TEXT/UTF8 Codec ID/Info : UTF-8 Plain Text Duration : 44 min 25 s Bit rate : 33 b/s Frame rate : 0.153 FPS Count of elements : 407 Stream size : 10.8 KiB (0%) Language : Indonesian Default : No Forced : No Text #24 ID : 27 Format : UTF-8 Codec ID : S_TEXT/UTF8 Codec ID/Info : UTF-8 Plain Text Duration : 44 min 25 s Bit rate : 28 b/s Frame rate : 0.139 FPS Count of elements : 371 Stream size : 9.41 KiB (0%) Language : Japanese Default : No Forced : No Text #25 ID : 28 Format : UTF-8 Codec ID : S_TEXT/UTF8 Codec ID/Info : UTF-8 Plain Text Duration : 44 min 25 s Bit rate : 35 b/s Frame rate : 0.155 FPS Count of elements : 414 Stream size : 11.6 KiB (0%) Language : Korean Default : No Forced : No Text #26 ID : 29 Format : UTF-8 Codec ID : S_TEXT/UTF8 Codec ID/Info : UTF-8 Plain Text Duration : 44 min 25 s Bit rate : 32 b/s Frame rate : 0.153 FPS Count of elements : 409 Stream size : 10.5 KiB (0%) Language : Malay Default : No Forced : No Text #27 ID : 30 Format : UTF-8 Codec ID : S_TEXT/UTF8 Codec ID/Info : UTF-8 Plain Text Duration : 44 min 21 s Bit rate : 32 b/s Frame rate : 0.148 FPS Count of elements : 395 Stream size : 10.7 KiB (0%) Language : Norwegian Bokmal Default : No Forced : No Text #28 ID : 31 Format : UTF-8 Codec ID : S_TEXT/UTF8 Codec ID/Info : UTF-8 Plain Text Duration : 44 min 16 s Bit rate : 31 b/s Frame rate : 0.135 FPS Count of elements : 359 Stream size : 10.3 KiB (0%) Language : Dutch Default : No Forced : No Text #29 ID : 32 Format : UTF-8 Codec ID : S_TEXT/UTF8 Codec ID/Info : UTF-8 Plain Text Duration : 44 min 25 s Bit rate : 31 b/s Frame rate : 0.150 FPS Count of elements : 400 Stream size : 10.3 KiB (0%) Language : Polish Default : No Forced : No Text #30 ID : 33 Format : UTF-8 Codec ID : S_TEXT/UTF8 Codec ID/Info : UTF-8 Plain Text Duration : 44 min 22 s Bit rate : 33 b/s Frame rate : 0.155 FPS Count of elements : 412 Stream size : 10.8 KiB (0%) Title : Brazilian Language : Portuguese (BR) Default : No Forced : No Text #31 ID : 34 Format : UTF-8 Codec ID : S_TEXT/UTF8 Codec ID/Info : UTF-8 Plain Text Duration : 44 min 22 s Bit rate : 32 b/s Frame rate : 0.153 FPS Count of elements : 408 Stream size : 10.6 KiB (0%) Language : Portuguese (PT) Default : No Forced : No Text #32 ID : 35 Format : UTF-8 Codec ID : S_TEXT/UTF8 Codec ID/Info : UTF-8 Plain Text Duration : 44 min 25 s Bit rate : 32 b/s Frame rate : 0.126 FPS Count of elements : 336 Stream size : 10.7 KiB (0%) Language : Romanian Default : No Forced : No Text #33 ID : 36 Format : UTF-8 Codec ID : S_TEXT/UTF8 Codec ID/Info : UTF-8 Plain Text Duration : 44 min 25 s Bit rate : 33 b/s Frame rate : 0.138 FPS Count of elements : 367 Stream size : 10.9 KiB (0%) Language : Swedish Default : No Forced : No Text #34 ID : 37 Format : UTF-8 Codec ID : S_TEXT/UTF8 Codec ID/Info : UTF-8 Plain Text Duration : 44 min 25 s Bit rate : 86 b/s Frame rate : 0.155 FPS Count of elements : 412 Stream size : 28.0 KiB (0%) Language : Thai Default : No Forced : No Text #35 ID : 38 Format : UTF-8 Codec ID : S_TEXT/UTF8 Codec ID/Info : UTF-8 Plain Text Duration : 44 min 25 s Bit rate : 32 b/s Frame rate : 0.143 FPS Count of elements : 381 Stream size : 10.5 KiB (0%) Language : Turkish Default : No Forced : No Text #36 ID : 39 Format : UTF-8 Codec ID : S_TEXT/UTF8 Codec ID/Info : UTF-8 Plain Text Duration : 44 min 25 s Bit rate : 40 b/s Frame rate : 0.153 FPS Count of elements : 408 Stream size : 13.3 KiB (0%) Language : Vietnamese Default : No Forced : No Text #37 ID : 40 Format : UTF-8 Codec ID : S_TEXT/UTF8 Codec ID/Info : UTF-8 Plain Text Duration : 44 min 25 s Bit rate : 30 b/s Frame rate : 0.155 FPS Count of elements : 413 Stream size : 9.94 KiB (0%) Title : Simplified Language : Chinese (Simplified) Default : No Forced : No Text #38 ID : 41 Format : UTF-8 Codec ID : S_TEXT/UTF8 Codec ID/Info : UTF-8 Plain Text Duration : 44 min 25 s Bit rate : 29 b/s Frame rate : 0.155 FPS Count of elements : 413 Stream size : 9.64 KiB (0%) Title : Traditional Language : Chinese (Traditional) Default : No Forced : No Menu 00:00:00.000 : en:Part 01 00:42:22.450 : en:Credits
[+] Скриншоты

Всего файлов в раздаче: 6 
Briganti S01E01 (2024) WEB-DL 1080p [Ukr_Ita] [Hurtom].mkv1.92 GB
Briganti S01E02 (2024) WEB-DL 1080p [Ukr_Ita] [Hurtom].mkv2.12 GB
Briganti S01E03 (2024) WEB-DL 1080p [Ukr_Ita] [Hurtom].mkv2.28 GB
Briganti S01E04 (2024) WEB-DL 1080p [Ukr_Ita] [Hurtom].mkv2.32 GB
Briganti S01E05 (2024) WEB-DL 1080p [Ukr_Ita] [Hurtom].mkv2.43 GB
Briganti S01E06 (2024) WEB-DL 1080p [Ukr_Ita] [Hurtom].mkv1.62 GB

Похожие раздачи по запросу - Разбойники
2024-05-05 magnet Разбойники: В поисках золота / Briganti / Brigands: The Quest for Gold [S01] (2024) WEB-DL 1080p | RuDub 13.11 GB ↑ 0 ↓ 0

Комментарии


Зарегистрируйтесь чтобы добавить комментарий
Торрент клиент
byTorrent - программа для загрузки торрент-файлов.

Скачать byTorrent.exe (1,5 МБ)

Скачать byTorrent.zip (0,6 МБ)

Поддержи torrent.by
российских рублей
(300 российских рублей это 4$)

Обратная связь rss

End game ©