↑↓torrent.by
Поиск
Логин:  Регистрация
Пароль:

Буллинг / Pestkop (2017) WEBRip 1080p | L1

download Скачать торрент-файл   magnet Магнитная ссылка Размер: 1.69 GB Добавлен: 2024-04-24 11:00
Пиры будут получены из сети DHT
Последний сидер был замечен 2024-04-25 11:04
Информация о фильме Название: Буллинг Оригинальное название: Pestkop Год выхода: 2017 Жанр: драма, триллер Режиссер: Шерд де Бонт В ролях: Майке Баккер, Санне Глория Вербум, Присцилла Кнетеманн, Томас Акда, Тара Хетария, Памела Тевес, Инга Ипенберг, Рикардо Блей О фильме: Дэнни - ученик старшей школы, которому дома уделяют мало внимания из-за его психически больной матери. Он предпочитает учиться в школе, где он очень популярен, но также известен как большой хулиган. Его главная жертва - Сус, одноклассница-лесбиянка, которая сталкивается со многими проблемами из-за своей ориентации. Она всегда оказывалась легкой жертвой для Дэнни. Страна: Нидерланды Студия: Jaro Gevers Producties, Stichting Follow Focus Продолжительность: 01:25:23 Перевод: Любительский одноголосый - (datynet) Файл Кодек: H.264 Качество: WEBRip 1080p | L1 Видео: 1920x800 (2.40:1), 25.000fps, MPEG4 Video (H264) High@L4 ~ 2 250 kbps avg Звук: Русский (AC3, 192 Kb/s (2 ch)), нидерландский (AAC, 384 Kb/s (6 ch)) Субтитры: Русские, английские
[+] MediaInfoGeneral Unique ID : 57277042805612029563949327594495097634 (0x2B17283D6054253C9379495922673B22) Complete name : D:Pestkop.2017.1080p.WEBRip.mkv Format : Matroska Format version : Version 4 / Version 2 File size : 1.69 GiB Duration : 1 h 25 min Overall bit rate : 2 812 kb/s Encoded date : UTC 2024-04-23 13:48:44 Writing application : mkvmerge v81.0 ('Milliontown') 64-bit Writing library : libebml v1.4.4 + libmatroska v1.7.1 / Lavf60.11.100 Video ID : 1 Format : AVC Format/Info : Advanced Video Codec Format profile : High@L4.1 Format settings : CABAC / 4 Ref Frames Format settings, CABAC : Yes Format settings, ReFrames : 4 frames Codec ID : V_MPEG4/ISO/AVC Duration : 1 h 25 min Bit rate : 2 250 kb/s Width : 1 920 pixels Height : 800 pixels Display aspect ratio : 2.40:1 Frame rate mode : Constant Frame rate : 25.000 FPS Color space : YUV Chroma subsampling : 4:2:0 Bit depth : 8 bits Scan type : Progressive Bits/(Pixel*Frame) : 0.059 Stream size : 1.34 GiB (79%) Writing library : x264 core 164 Encoding settings : cabac=1 / ref=4 / deblock=1:-1:-1 / analyse=0x3:0x133 / me=umh / subme=9 / psy=1 / psy_rd=1.00:0.15 / mixed_ref=1 / me_range=24 / chroma_me=1 / trellis=2 / 8x8dct=1 / cqm=0 / deadzone=21,11 / fast_pskip=1 / chroma_qp_offset=-3 / threads=24 / lookahead_threads=2 / sliced_threads=0 / nr=0 / decimate=1 / interlaced=0 / bluray_compat=0 / constrained_intra=0 / bframes=3 / b_pyramid=2 / b_adapt=2 / b_bias=0 / direct=3 / weightb=1 / open_gop=0 / weightp=2 / keyint=250 / keyint_min=23 / scenecut=40 / intra_refresh=0 / rc_lookahead=60 / rc=2pass / mbtree=1 / bitrate=2250 / ratetol=1.0 / qcomp=0.60 / qpmin=0 / qpmax=69 / qpstep=4 / cplxblur=20.0 / qblur=0.5 / vbv_maxrate=31250 / vbv_bufsize=31250 / nal_hrd=none / filler=0 / ip_ratio=1.40 / aq=1:1.00 Default : Yes Forced : No Color range : Limited Color primaries : BT.709 Transfer characteristics : BT.709 Matrix coefficients : BT.709 Audio #1 ID : 2 Format : AC-3 Format/Info : Audio Coding 3 Codec ID : A_AC3 Duration : 1 h 25 min Bit rate mode : Constant Bit rate : 192 kb/s Channel(s) : 2 channels Channel positions : Front: L R Sampling rate : 48.0 kHz Frame rate : 31.250 FPS (1536 SPF) Bit depth : 16 bits Compression mode : Lossy Delay relative to video : -43 ms Stream size : 118 MiB (7%) Language : Russian Service kind : Complete Main Default : Yes Forced : No Audio #2 ID : 3 Format : AAC Format/Info : Advanced Audio Codec Format profile : LC Codec ID : A_AAC-2 Duration : 1 h 25 min Bit rate : 384 kb/s Channel(s) : 6 channels Channel positions : Front: L C R, Side: L R, LFE Sampling rate : 48.0 kHz Frame rate : 46.875 FPS (1024 SPF) Compression mode : Lossy Delay relative to video : -43 ms Stream size : 236 MiB (14%) Default : No Forced : No Text #1 ID : 4 Format : UTF-8 Codec ID : S_TEXT/UTF8 Codec ID/Info : UTF-8 Plain Text Duration : 1 h 25 min Bit rate : 52 b/s Count of elements : 975 Stream size : 33.1 KiB (0%) Language : English Default : No Forced : No Text #2 ID : 5 Format : UTF-8 Codec ID : S_TEXT/UTF8 Codec ID/Info : UTF-8 Plain Text Duration : 1 h 25 min Bit rate : 84 b/s Count of elements : 978 Stream size : 53.0 KiB (0%) Language : Russian Default : No Forced : No
[+] Скриншоты

Всего файлов в раздаче: 1 
Pestkop.2017.1080p.WEBRip.mkv1.69 GB

Комментарии


Зарегистрируйтесь чтобы добавить комментарий
Торрент клиент
byTorrent - программа для загрузки торрент-файлов.

Скачать byTorrent.exe (1,5 МБ)

Скачать byTorrent.zip (0,6 МБ)

Поддержи torrent.by
российских рублей
(300 российских рублей это 4$)

Обратная связь rss

End game ©