↑↓torrent.by
Поиск
Логин:  Регистрация
Пароль:

Валентина / Valentina (2021) WEB-DL 1080p | D

download Скачать торрент-файл   magnet Магнитная ссылка Размер: 2.44 GB Раздают: 0 Качают: 1 Добавлен: 2024-04-24 17:00
Пиры будут получены из сети DHT
Последний сидер был замечен 2024-05-11 19:09
Название: Валентина Оригинальное название: Valentina Год выпуска: 2021 Жанр: Мультфильм Выпущено: Испания, Португалия, Abano Producions, El Gatoverde, Sparkle Animation Режиссер: Чело Лоурейро В ролях: Жозефина Локхарт, Лусия Серен, Алисия Рабаде, Мария Мануэла, Луа Теста, Андрес Суарес, Коке Коуту, Хельга Мендес, Чаро Пенья, Тереза Сантамария О фильме: У Валентины синдром Дауна, и она сомневается, что с ним она сможет исполнить заветную мечту стать акробаткой. Однажды в загадочное путешествие отправляется бабушка Валентины, всегда поддерживающая внучку. Вместе с другом-мышонком Чики Валентина следует за ней — впереди оказывается увлекательный путь, полный неожиданных препятствий и вдохновляющих событий. Девочке предстоит узнать, что случилось с бабушкой, и обрести веру в себя. Продолжительность: 01:05:49 Перевод: Дублированный (Leff Sound) Качество: WEB-DL 1080p Формат: MKV Видео: MPEG-4 AVC, 5000 Кбит/с, 1920x1040 Аудио: E-AC3, 6 ch, 384 Кбит/с Субтитры: отсутствуют
[+] MIGeneral Unique ID : 108349745861812521659130845997617858706 (0x518366E99DC2F505F4B3B89106574892) Complete name : D:Valentina.2021.D.WEB-DL.1080p.mkv Format : Matroska Format version : Version 4 File size : 2.44 GiB Duration : 1 h 5 min Overall bit rate : 5 312 kb/s Encoded date : UTC 2024-04-20 17:45:11 Writing application : mkvmerge v62.0.0 ('Apollo') 64-bit Writing library : libebml v1.4.2 + libmatroska v1.6.4 Video ID : 1 Format : AVC Format/Info : Advanced Video Codec Format profile : High@L4 Format settings : CABAC / 3 Ref Frames Format settings, CABAC : Yes Format settings, Reference frames : 3 frames Codec ID : V_MPEG4/ISO/AVC Duration : 1 h 5 min Bit rate : 5 000 kb/s Width : 1 920 pixels Height : 1 040 pixels Display aspect ratio : 1.85:1 Frame rate mode : Constant Frame rate : 24.000 FPS Color space : YUV Chroma subsampling : 4:2:0 Bit depth : 8 bits Scan type : Progressive Bits/(Pixel*Frame) : 0.104 Stream size : 2.27 GiB (93%) Writing library : x264 core 164 r3095 baee400 Encoding settings : cabac=1 / ref=4 / deblock=1:-1:-1 / analyse=0x3:0x133 / me=umh / subme=9 / psy=1 / psy_rd=0.40:1.00 / mixed_ref=1 / me_range=24 / chroma_me=1 / trellis=0 / 8x8dct=1 / cqm=0 / deadzone=21,11 / fast_pskip=1 / chroma_qp_offset=-2 / threads=3 / lookahead_threads=1 / sliced_threads=0 / nr=0 / decimate=1 / interlaced=0 / bluray_compat=0 / stitchable=1 / constrained_intra=0 / bframes=8 / b_pyramid=1 / b_adapt=0 / b_bias=0 / direct=3 / weightb=1 / open_gop=0 / weightp=2 / keyint=72 / keyint_min=37 / scenecut=0 / intra_refresh=0 / rc_lookahead=40 / rc=2pass / mbtree=1 / bitrate=5000 / ratetol=1.0 / qcomp=0.80 / qpmin=1 / qpmax=69 / qpstep=4 / cplxblur=20.0 / qblur=0.5 / vbv_maxrate=7500 / vbv_bufsize=10000 / nal_hrd=none / filler=0 / ip_ratio=1.40 / aq=1:1.00 Default : Yes Forced : No Color range : Limited Color primaries : BT.709 Transfer characteristics : BT.709 Matrix coefficients : BT.709 Audio ID : 2 Format : E-AC-3 Format/Info : Enhanced AC-3 Commercial name : Dolby Digital Plus Codec ID : A_EAC3 Duration : 1 h 5 min Bit rate mode : Constant Bit rate : 384 kb/s Channel(s) : 6 channels Channel layout : L R C LFE Ls Rs Sampling rate : 48.0 kHz Frame rate : 31.250 FPS (1536 SPF) Compression mode : Lossy Stream size : 181 MiB (7%) Language : Russian Service kind : Complete Main Default : Yes Forced : No
[+] Скриншоты

Всего файлов в раздаче: 1 
Valentina.2021.D.WEB-DL.1080p.mkv2.44 GB

Комментарии


Зарегистрируйтесь чтобы добавить комментарий
Торрент клиент
byTorrent - программа для загрузки торрент-файлов.

Скачать byTorrent.exe (1,5 МБ)

Скачать byTorrent.zip (0,6 МБ)

Поддержи torrent.by
российских рублей
(300 российских рублей это 4$)

Обратная связь rss

End game ©