↑↓torrent.by
Поиск
Логин:  Регистрация
Пароль:

Золотой слиток / CASH (2023) WEB-DLRip-AVC от DoMiNo & селезень | L2

download Скачать торрент-файл   magnet Магнитная ссылка Размер: 1.60 GB Добавлен: 2024-04-24 17:00
Пиры будут получены из сети DHT
Последний сидер был замечен вчера в 20:27
Информация о фильме Название: Золотой слиток Оригинальное название: CASH Год выпуска: 2023 Жанр: Драма, комедия Режиссер: Джереми Розан В ролях: Рафаэль Кенар, Игорь Готсман, Агат Руссель, Антуан Гуи, Нина Мерисс, Грегуар Колен, Юсеф Хаджди, Стефан Войтович, Фуэд Набба, Юнес Бусиф О фильме: Комедия, вобравшая в себя искрометный юмор и глубокую драматическую историю. Главный герой – фабричный работник, решает найти способ сравнять весы и получить прибыль от своей неблагодарной работы. Он замышляет торговать роскошными духами, сокровищами, которые оказываются под носом его жадного и беспощадного работодателя. В определенный момент ситуация принимает неожиданный поворот. Выпущено: Франция, 2425 Films Продолжительность: 01:36:42 Перевод: Любительский (двухголосый, закадровый) Субтитры: Русские (Forced, Full), Английские (Full, SDH), Французские Файл Формат: Matroska Качество: WEB-DLRip-AVC Видео: 1024x428 at 24.000 fps, x264@L4.1, ~1730 kbps Аудио 1: AC3, 2 ch, ~192 kbps - | Русский | Аудио 2: AC3, 6 ch, ~448 kbps - | Французский | Формат субтитров: softsub (SRT) ***Рип от: -=DoMiNo=-
[+] M/IGeneral Unique ID : 2872552316200873584998349247750080209 (0x2293BC386F9A834C781F91225AC06D1) Complete name : I:CASH.2023.WEB-DLRip.x264.seleZen.mkv Format : Matroska Format version : Version 4 File size : 1.60 GiB Duration : 1 h 36 min Overall bit rate : 2 373 kb/s Frame rate : 24.000 FPS Movie name : CASH.2023.WEB-DLRip.x264.seleZen Encoded date : 2023-08-26 17:54:46 UTC Writing application : mkvmerge v79.0 ('Funeral Pyres') 64-bit Writing library : libebml v1.4.4 + libmatroska v1.7.1 Cover : Yes Attachments : cover.jpg / small_cover.jpg Video ID : 1 Format : AVC Format/Info : Advanced Video Codec Format profile : High@L4.1 Format settings : CABAC / 10 Ref Frames Format settings, CABAC : Yes Format settings, Reference : 10 frames Codec ID : V_MPEG4/ISO/AVC Duration : 1 h 36 min Bit rate : 1 730 kb/s Width : 1 024 pixels Height : 428 pixels Display aspect ratio : 2.40:1 Frame rate mode : Constant Frame rate : 24.000 FPS Color space : YUV Chroma subsampling : 4:2:0 Bit depth : 8 bits Scan type : Progressive Bits/(Pixel*Frame) : 0.164 Stream size : 1.17 GiB (73%) Title : -=DoMiNo=- Writing library : x264 core 164 r3107+58M ae98796 t_mod_New | by -=DoMiNo=- | X86_64] Encoding settings : cabac=1 / ref=10 / deblock=1:0:0 / analyse=0x3:0x133 / me=umh / subme=10 / psy=1 / fade_compensate=0.00 / psy_rd=1.00:0.00 / mixed_ref=1 / me_range=32 / chroma_me=1 / trellis=2 / 8x8dct=1 / cqm=0 / deadzone=21,11 / fast_pskip=0 / chroma_qp_offset=-2 / threads=17 / lookahead_threads=3 / sliced_threads=0 / nr=0 / decimate=1 / interlaced=0 / bluray_compat=0 / constrained_intra=0 / fgo=0 / bframes=10 / b_pyramid=2 / b_adapt=2 / b_bias=0 / direct=3 / weightb=1 / open_gop=0 / weightp=2 / keyint=240 / keyint_min=24 / scenecut=40 / intra_refresh=0 / rc_lookahead=60 / rc=crf / mbtree=0 / crf=18.0000 / qcomp=0.70 / qpmin=0:0:0 / qpmax=69:69:69 / qpstep=4 / vbv_maxrate=50000 / vbv_bufsize=62500 / crf_max=0.0 / nal_hrd=none / filler=0 / ip_ratio=1.20 / pb_ratio=1.38 / aq=1:1.00 / aq-sensitivity=10.00 / aq-factor=1.00:1.00:1.00 / aq2=0 / aq3=0 Language : English Default : Yes Forced : No Audio #1 ID : 2 Format : AC-3 Format/Info : Audio Coding 3 Commercial name : Dolby Digital Codec ID : A_AC3 Duration : 1 h 36 min Bit rate mode : Constant Bit rate : 192 kb/s Channel(s) : 2 channels Channel layout : L R Sampling rate : 48.0 kHz Frame rate : 31.250 FPS (1536 SPF) Compression mode : Lossy Stream size : 133 MiB (8%) Title : DVO Language : Russian Service kind : Complete Main Default : Yes Forced : No Audio #2 ID : 3 Format : AC-3 Format/Info : Audio Coding 3 Commercial name : Dolby Digital Codec ID : A_AC3 Duration : 1 h 36 min Bit rate mode : Constant Bit rate : 448 kb/s Channel(s) : 6 channels Channel layout : L R C LFE Ls Rs Sampling rate : 48.0 kHz Frame rate : 31.250 FPS (1536 SPF) Compression mode : Lossy Stream size : 310 MiB (19%) Title : Original Language : French Service kind : Complete Main Default : No Forced : No Text #1 ID : 4 Format : UTF-8 Codec ID : S_TEXT/UTF8 Codec ID/Info : UTF-8 Plain Text Duration : 1 h 27 min Bit rate : 1 b/s Frame rate : 0.004 FPS Count of elements : 20 Stream size : 1.04 KiB (0%) Title : Forced_rus Language : Russian Default : Yes Forced : No Text #2 ID : 5 Format : UTF-8 Codec ID : S_TEXT/UTF8 Codec ID/Info : UTF-8 Plain Text Duration : 1 h 28 min Bit rate : 113 b/s Frame rate : 0.240 FPS Count of elements : 1273 Stream size : 73.6 KiB (0%) Title : Full_ Language : Russian Default : No Forced : No Text #3 ID : 6 Format : UTF-8 Codec ID : S_TEXT/UTF8 Codec ID/Info : UTF-8 Plain Text Duration : 1 h 28 min Bit rate : 96 b/s Frame rate : 0.313 FPS Count of elements : 1671 Stream size : 62.9 KiB (0%) Title : Français Language : French Default : No Forced : No Text #4 ID : 7 Format : UTF-8 Codec ID : S_TEXT/UTF8 Codec ID/Info : UTF-8 Plain Text Duration : 1 h 28 min Bit rate : 86 b/s Frame rate : 0.268 FPS Count of elements : 1423 Stream size : 56.4 KiB (0%) Title : Full Language : English Default : No Forced : No Text #5 ID : 8 Format : UTF-8 Codec ID : S_TEXT/UTF8 Codec ID/Info : UTF-8 Plain Text Duration : 1 h 35 min Bit rate : 89 b/s Frame rate : 0.278 FPS Count of elements : 1592 Stream size : 62.1 KiB (0%) Title : SDH Language : English Default : No Forced : No Menu 00:00:00.000 : en:Глава 01 00:05:50.000 : en:Глава 02 00:11:40.000 : en:Глава 03 00:17:30.000 : en:Глава 04 00:23:20.000 : en:Глава 05 00:29:10.000 : en:Глава 06 00:35:00.000 : en:Глава 07 00:40:50.000 : en:Глава 08 00:46:40.000 : en:Глава 09 00:52:30.000 : en:Глава 10 00:58:20.000 : en:Глава 11 01:04:10.000 : en:Глава 12 01:10:00.000 : en:Глава 13 01:15:50.000 : en:Глава 14 01:21:40.000 : en:Глава 15 01:27:30.000 : en:Глава 16 01:33:20.000 : en:Глава 17
Релиз: Присоединяйся к: Кликай на баннеры.

Всего файлов в раздаче: 1 
CASH.2023.WEB-DLRip.x264.seleZen.mkv1.60 GB

Кто качает (только для создателя раздачи и модераторов): Локальные пиры отсутствуют

Комментарии


Зарегистрируйтесь чтобы добавить комментарий
Торрент клиент
byTorrent - программа для загрузки торрент-файлов.

Скачать byTorrent.exe (1,5 МБ)

Скачать byTorrent.zip (0,6 МБ)

Поддержи torrent.by
российских рублей
(300 российских рублей это 4$)

Обратная связь rss

End game ©