↑↓torrent.by
Поиск
Логин:  Регистрация
Пароль:

Артур, ты король / Arthur the King (2024) WEB-DL-HEVC 2160p | 4K | SDR | L | Soundmasters

download Скачать торрент-файл   magnet Магнитная ссылка Размер: 16.46 GB Добавлен: 2024-04-24 17:00
Пиры будут получены из сети DHT
Последний сидер был замечен вчера в 23:13
Информация о фильме Название: Артур, ты король Оригинальное название: Arthur the King Год выпуска: 2024 Жанр: драма, приключения Режиссер: Саймон Селлан Джонс / Simon Cellan Jones В ролях: Марк Уолберг, Симу Лю, Джульет Райлэнс, Натали Эммануэль, Али Сулиман, Беар Гриллс, Пол Гилфойл, Роб Коллинз, Карлтон Бёрд, Сиси Валентина О фильме: Это было последнее соревнование капитана по приключенческим гонкам Майкла Линднорда, он был полон решимости ничему не позволить встать у него на пути. Собрав первоклассную команду, он не мог и представить, что в 700-километровом забеге у них появится неожиданный попутчик - пес по кличке Артур, встреча с которым изменит не только исход гонки, но и их жизнь. Выпущено: США / Lionsgate, Tooley Productions Продолжительность: 01:47:34 Перевод: Любительский (многоголосый, закадровый)| Soundmasters Субтитры: Английские Файл Формат: Matroska Качество: WEB-DL-HEVC 2160p | 4K | SDR Видео: HEVC/H.265, 3832x1592, ~19,7 Mbps Аудио 1: AC3, 6 ch, 448 kbps, русский (MVO Soundmasters) Аудио 2: AC3, 6 ch, 640 kbps, английский Аудио 3: E-AC3 JOC, 6 ch, 768 kbps, английский Формат субтитров: softsub (SRT)
[+] M/IОбщее Уникальный идентификатор : 174016490462814318951908057243394118625 (0x82EA5B6309BED8C18608DBCCF17613E1) Полное имя : Артур, ты король. 2024 (HEVC.SDR.WEB-DL 2160p).mkv Формат : Matroska Версия формата : Version 2 Размер файла : 16,5 Гбайт Продолжительность : 1 ч. 47 м. Общий поток : 22,0 Мбит/сек Частота кадров : 23,976 кадра/сек Название фильма : Arthur.the.King.2024.HEVC.h.265.SDR.WEB-DL 2160p.Atla22 Дата кодирования : 2024-04-24 09:23:11 UTC Программа кодирования : mkvmerge v7.8.0 ('River Man') 32bit built on Apr 3 2015 12:11:22 Библиотека кодирования : libebml v1.3.1 + libmatroska v1.4.2 Обложка : Yes Attachments : Cover_Arthur.the.King.jpg Видео Идентификатор : 1 Формат : HEVC Формат/Информация : High Efficiency Video Coding Профиль формата : Main 10@L5@High Идентификатор кодека : V_MPEGH/ISO/HEVC Продолжительность : 1 ч. 47 м. Битрейт : 19,7 Мбит/сек Ширина : 3 832 пикселя Высота : 1 592 пикселя Соотношение сторон : 2,40:1 Режим частоты кадров : Постоянный Частота кадров : 23,976 (24000/1001) кадра/сек Цветовое пространство : YUV Субдискретизация насыщенности : 4:2:0 Битовая глубина : 10 бит Бит/(Пиксели*Кадры) : 0.135 Размер потока : 14,7 Гбайт (90%) Язык : English Default : Да Forced : Нет Цветовой диапазон : Limited Основные цвета : BT.709 Характеристики трансфера : BT.709 Коэффициенты матрицы : BT.709 Аудио #1 Идентификатор : 2 Формат : AC-3 Формат/Информация : Audio Coding 3 Коммерческое название : Dolby Digital Идентификатор кодека : A_AC3 Продолжительность : 1 ч. 47 м. Вид битрейта : Постоянный Битрейт : 448 Кбит/сек Каналы : 6 каналов Channel layout : L R C LFE Ls Rs Частота : 48,0 КГц Частота кадров : 31,250 кадров/сек (1536 SPF) Метод сжатия : С потерями Размер потока : 343 Мбайт (2%) Заголовок : Soundmasters Язык : Russian Service kind : Complete Main Default : Да Forced : Нет Аудио #2 Идентификатор : 3 Формат : AC-3 Формат/Информация : Audio Coding 3 Коммерческое название : Dolby Digital Идентификатор кодека : A_AC3 Продолжительность : 1 ч. 47 м. Вид битрейта : Постоянный Битрейт : 640 Кбит/сек Каналы : 6 каналов Channel layout : L R C LFE Ls Rs Частота : 48,0 КГц Частота кадров : 31,250 кадров/сек (1536 SPF) Метод сжатия : С потерями Размер потока : 490 Мбайт (3%) Заголовок : AC3 Язык : English Service kind : Complete Main Default : Нет Forced : Нет Аудио #3 Идентификатор : 4 Формат : E-AC-3 JOC Формат/Информация : Enhanced AC-3 with Joint Object Coding Коммерческое название : Dolby Digital Plus with Dolby Atmos Идентификатор кодека : A_EAC3 Продолжительность : 1 ч. 47 м. Вид битрейта : Постоянный Битрейт : 768 Кбит/сек Каналы : 6 каналов Channel layout : L R C LFE Ls Rs Частота : 48,0 КГц Частота кадров : 31,250 кадров/сек (1536 SPF) Метод сжатия : С потерями Размер потока : 588 Мбайт (3%) Заголовок : E-AC3 JOC Язык : English Service kind : Complete Main Default : Нет Forced : Нет Complexity index : 16 Number of dynamic objects : 15 Bed channel count : 1 канал Bed channel configuration : LFE Текст Идентификатор : 5 Формат : UTF-8 Идентификатор кодека : S_TEXT/UTF8 Идентификатор кодека/Информация : UTF-8 Plain Text Заголовок : SDH Язык : English Default : Нет Forced : Нет

Всего файлов в раздаче: 1 
Артур, ты король. 2024 (HEVC.SDR.WEB-DL 2160p).mkv16.46 GB

Похожие раздачи по запросу - Артур
Вчера magnet Артур, ты король / Arthur the King (2024) BDRip 1080p от селезень | D | Мосфильм-Мастер 8.43 GB ↑ 0 ↓ 0
Вчера magnet Артур, ты король / Arthur the King (2024) BDRip 720p от DoMiNo & селезень | D | Мосфильм-Мастер 3.62 GB ↑ 0 ↓ 8
Вчера magnet Артур, ты король / Arthur the King (2024) BDRip 1080p от MegaPeer | D 7.33 GB ↑ 0 ↓ 4
Вчера magnet Артур, ты король / Arthur the King (2024) BDRip 720p от MegaPeer | D 3.40 GB ↑ 0 ↓ 2
Вчера magnet Артур, ты король / Arthur the King (2024) BDRip от MegaPeer | D 1.46 GB ↑ 1 ↓ 2
Вчера magnet Артур, ты король / Arthur the King (2024) BDRip-AVC от New-Team | D, L 2.18 GB ↑ 0 ↓ 1
2024-05-06 magnet Артур, ты король / Arthur the King (2024) WEB-DLRip-AVC от ExKinoRay | D | Мосфильм-Мастер 1.45 GB ↑ 0 ↓ 1

Кто качает (только для создателя раздачи и модераторов): Локальные пиры отсутствуют

Комментарии


Зарегистрируйтесь чтобы добавить комментарий
Торрент клиент
byTorrent - программа для загрузки торрент-файлов.

Скачать byTorrent.exe (1,5 МБ)

Скачать byTorrent.zip (0,6 МБ)

Поддержи torrent.by
российских рублей
(300 российских рублей это 4$)

Обратная связь rss

End game ©