↑↓torrent.by
Поиск
Логин:  Регистрация
Пароль:

Sunface - Cloud Castles [24-bit Hi-Res] (2024) FLAC

download Скачать торрент-файл   magnet Магнитная ссылка Размер: 478.36 MB Добавлен: 2024-04-25 05:00
Пиры будут получены из сети DHT
Последний сидер был замечен 2024-04-25 05:00
Название: Cloud Castles Исполнитель: Sunface Год: 2024 Жанр: Rock Издатель (лейбл): Apollon Records Продолжительность: 00:44:25 Формат/Кодек: FLAC Тип рипа: Tracks Битрейт аудио: Lossless Разрядность: 24 Bit/44,1 kHz
[+] Трек-лист 01. Cloud Castles (00:04:13) 02. New Natures (00:04:21) 03. Tall Trees (00:04:33) 04. Garden Of Lanterns Ii (00:02:12) 05. Second Voyage (00:04:05) 06. Thunder Era (00:03:49) 07. Violet Ponds (00:06:02) 08. Priest Of The Rays (00:04:05) 09. Green Fields And Familiar Faces (00:03:01) 10. …through The Snow And Beyond The Fertile Land (00:08:04)
[+] DRM foobar2000 1.5.5 / Замер динамического диапазона (DR) 1.1.1 ------------------------------------------------------------------------------- Анализ: Sunface / Cloud Castles -------------------------------------------------------------------------------- DR Пики RMS Продолжительность трека -------------------------------------------------------------------------------- DR7 -1.00 дБ -8.31 дБ 4:13 01-Cloud Castles DR7 -1.00 дБ -9.12 дБ 4:21 02-New Natures DR6 -1.00 дБ -8.06 дБ 4:33 03-Tall Trees DR9 -1.75 дБ -13.21 дБ 2:12 04-Garden Of Lanterns Ii DR7 -0.99 дБ -8.65 дБ 4:05 05-Second Voyage DR7 -1.00 дБ -8.47 дБ 3:49 06-Thunder Era DR7 -1.00 дБ -8.59 дБ 6:02 07-Violet Ponds DR7 -0.99 дБ -8.67 дБ 4:05 08-Priest Of The Rays DR6 -1.00 дБ -8.41 дБ 3:01 09-Green Fields And Familiar Faces DR6 -1.00 дБ -9.18 дБ 8:04 10-…through The Snow And Beyond The Fertile Land -------------------------------------------------------------------------------- Количество треков: 10 Реальные значения DR: DR7 Частота: 44100 Гц Каналов: 2 Разрядность: 24 Битрейт: 1477 кбит/с Кодек: FLAC ================================================================================
Время раздачи: 24/7 (минимум до появления первых 3-5 скачавших, на раздачи не возвращаюсь) Первое правило участника файлообмена: "Скачал сам - дай скачать другому!"

Всего файлов в раздаче: 11 
01. Cloud Castles.flac47.41 MB
02. New Natures.flac47.31 MB
03. Tall Trees.flac49.03 MB
04. Garden Of Lanterns Ii.flac18.88 MB
05. Second Voyage.flac45.75 MB
06. Thunder Era.flac43.35 MB
07. Violet Ponds.flac62.47 MB
08. Priest Of The Rays.flac46.05 MB
09. Green Fields And Familiar Faces.flac32.66 MB
10. …through The Snow And Beyond The Fertile Land.flac85.40 MB
Показать все файлы

Кто качает (только для создателя раздачи и модераторов): Локальные пиры отсутствуют

Комментарии


Зарегистрируйтесь чтобы добавить комментарий
Торрент клиент
byTorrent - программа для загрузки торрент-файлов.

Скачать byTorrent.exe (1,5 МБ)

Скачать byTorrent.zip (0,6 МБ)

Поддержи torrent.by
российских рублей
(300 российских рублей это 4$)

Обратная связь rss

End game ©