↑↓torrent.by
Поиск
Логин:  Регистрация
Пароль:

Одно плохое яблоко. Расследование Ханны Свенсен / One Bad Apple: A Hannah Swensen Mystery (2024) WEB-DLRip от ExKinoRay | P2

download Скачать торрент-файл   magnet Магнитная ссылка Размер: 742.21 MB Добавлен: 2024-04-25 05:00
Пиры будут получены из сети DHT
Последний сидер был замечен 2024-05-06 20:13
Информация о фильме Название: Одно плохое яблоко. Расследование Ханны Свенсен Оригинальное название: One Bad Apple: A Hannah Swensen Mystery Год выхода: 2024 Жанр: детектив Режиссер: Шеннон Коли В ролях: Тесс Аткинс, Лиза Дурупт, Себастьян Гривз, Гэбриел Хоган, Хилари Джардин, Барбара Нивен, Оливер Райс, Castle Rock, Матрея Скаррвинер, Элисон Суини..... О фильме: Репутация хозяйки пекарни Ханны Свенсон так выросла, что её приглашают преподавать в техникум города Лэйк-Эден. И среди преподавательского состава находится разведённый учитель, который аппетитной блондиночкой начинает интересоваться больше, чем приготовленными ею вкусняшками. И кто бы знал, куда заведёт этот роман, вот только он обрывается, не успев начаться. В колледже происходит убийство, и Ханна вспоминает о втором своём увлечении —расследовании загадочных преступлений. Правда, на этот раз и она сама попадает в число подозреваемых, причём, даже в глазах родной матери, которая и сама слишком уж увлеклась ролью частного детектива. Страна: Канада Студия: Lighthouse Pictures, Canadian Film or Video Production Tax Credit, Province of British Columbia Film Incentive BC Продолжительность: 01:24:19 Перевод: Профессиональный двухголосый - Файл Кодек: XviD Качество: WEB-DLRip Видео: 624x352 (1.77:1), 23.976 fps, XviD build 67 ~1089 kbps avg, 0.21 bit/pixel Звук: 48 kHz, MP3, 2 ch, ~128 kbps avg Субтитры: Отсутствуют
[+] MediaInfoGeneral Complete name : D:CrimeTime.Freefall.WEB-DLRip.ExKinoRay.avi Format : AVI Format/Info : Audio Video Interleave Format settings : BitmapInfoHeader / WaveFormatEx File size : 742 MiB Duration : 1 h 24 min Overall bit rate : 1 230 kb/s Frame rate : 23.976 FPS Writing application : Lavf58.29.100 Video ID : 0 Format : MPEG-4 Visual Format profile : Advanced Simple@L5 Format settings : BVOP1 / Custom Matrix Format settings, BVOP : 1 Format settings, QPel : No Format settings, GMC : No warppoints Format settings, Matrix : Custom Codec ID : XVID Codec ID/Hint : XviD Duration : 1 h 24 min Bit rate : 1 090 kb/s Width : 624 pixels Height : 352 pixels Display aspect ratio : 16:9 Frame rate : 23.976 (24000/1001) FPS Color space : YUV Chroma subsampling : 4:2:0 Bit depth : 8 bits Scan type : Progressive Compression mode : Lossy Bits/(Pixel*Frame) : 0.207 Stream size : 657 MiB (89%) Writing library : XviD 67 Audio ID : 1 Format : MPEG Audio Format version : Version 1 Format profile : Layer 3 Format settings : Joint stereo / MS Stereo Codec ID : 55 Codec ID/Hint : MP3 Duration : 1 h 24 min Bit rate mode : Constant Bit rate : 128 kb/s Channel(s) : 2 channels Sampling rate : 48.0 kHz Compression mode : Lossy Stream size : 77.2 MiB (10%) Alignment : Aligned on interleaves Interleave, duration : 24 ms (0.58 video frame) Title : ViruseProject Writing library : LAME3.100ªªªªªªªªªª)
[+] Скриншоты
Релиз от: Рип изготовил:

Всего файлов в раздаче: 1 
One Bad Apple A Hannah Swensen Mystery.WEB-DLRip.ExKinoRay.avi742.21 MB

Похожие раздачи по запросу - Одно
2024-04-23 magnet Одно плохое яблоко. Расследование Ханны Свенсен / One Bad Apple: A Hannah Swensen Mystery (2024) WEB-DLRip от New-Team | P2 | ViruseProject 1.46 GB ↑ 0 ↓ 0
2024-04-23 magnet Одно плохое яблоко. Расследование Ханны Свенсен / One Bad Apple: A Hannah Swensen Mystery (2024) WEB-DL 1080p | ViruseProject 4.93 GB ↑ 0 ↓ 0

Комментарии


Зарегистрируйтесь чтобы добавить комментарий
Торрент клиент
byTorrent - программа для загрузки торрент-файлов.

Скачать byTorrent.exe (1,5 МБ)

Скачать byTorrent.zip (0,6 МБ)

Поддержи torrent.by
российских рублей
(300 российских рублей это 4$)

Обратная связь rss

End game ©