↑↓torrent.by
Поиск
Логин:  Регистрация
Пароль:

Мой Хатико / Hachiko / Zhong quan ba gong (2023) BDRip-AVC от DoMiNo & селезень | D

download Скачать торрент-файл   magnet Магнитная ссылка Размер: 2.04 GB Добавлен: 2024-04-25 05:00
Пиры будут получены из сети DHT
Последний сидер был замечен 2024-05-01 23:57
Информация о фильме Название: Мой Хатико Оригинальное название: Hachiko / Zhong quan ba gong Год выхода: 2023 Жанр: драма, семейный Режиссер: Сюй Ан В ролях: Фэн Сяоган, Хуан Сюн, Да Хуан, Джоан Чэнь, Бай Цзюйган, Эпонин Хуан, Цянь Бо, Ян Бо, Хуан Сяоцзюй, Хуан Доу О фильме: Начало 2000-х годов. Во время поездки за город с коллегами немолодой университетский преподаватель Чэнь подбирает на дороге грязного и испуганного щенка. Никто не соглашается взять пёсика себе, поэтому мужчине приходится втихаря принести его домой, хотя супруга терпеть не может собак. Пообещав, что найдёт щенку новый дом, Чэнь тем не менее отказывает всем претендентам — так пёс получает кличку Хатико и становится новым членом семьи. Страна: Китай Студия: iQIYI Pictures Продолжительность: 02:05:06 Перевод: Профессиональный (дублированный) | Leff Sound Субтитры: Русские (Forced, Full), Английские Файл Формат: Matroska Качество: BDRip-AVC Видео: 1024x428 at 24.000 fps, x264@L4.1, ~1889 kbps Аудио: AC3, 6 ch, ~448 kbps - | Русский | Формат субтитров: softsub (SRT) ***Рип от: -=DoMiNo=-
[+] M/IGeneral Unique ID : 10667185585881977442652473512789486053 (0x8066CDAD6CAAE76F71A50750F7329E5) Complete name : R:Hachiko.2023.DUB.BDRip.x264.seleZen.mkv Format : Matroska Format version : Version 4 File size : 2.04 GiB Duration : 2 h 5 min Overall bit rate : 2 339 kb/s Frame rate : 24.000 FPS Movie name : Hachiko.2023.DUB.BDRip.x264.seleZen Encoded date : 2024-04-24 19:50:31 UTC Writing application : mkvmerge v83.0 ('Circle Of Friends') 64-bit Writing library : libebml v1.4.5 + libmatroska v1.7.1 Cover : Yes Attachments : cover.jpg / small_cover.jpg Video ID : 1 Format : AVC Format/Info : Advanced Video Codec Format profile : High@L4.1 Format settings : CABAC / 14 Ref Frames Format settings, CABAC : Yes Format settings, Reference : 14 frames Codec ID : V_MPEG4/ISO/AVC Duration : 2 h 5 min Bit rate : 1 889 kb/s Width : 1 024 pixels Height : 428 pixels Display aspect ratio : 2.39:1 Frame rate mode : Constant Frame rate : 24.000 FPS Color space : YUV Chroma subsampling : 4:2:0 Bit depth : 8 bits Scan type : Progressive Bits/(Pixel*Frame) : 0.180 Stream size : 1.65 GiB (81%) Title : -=DoMiNo=- Writing library : x264 core 164 r3190 -DoMiNo Encoding settings : cabac=1 / ref=14 / deblock=1:-2:-2 / analyse=0x3:0x133 / me=umh / subme=10 / psy=1 / psy_rd=1.05:0.05 / mixed_ref=1 / me_range=32 / chroma_me=1 / trellis=2 / 8x8dct=1 / cqm=0 / deadzone=21,11 / fast_pskip=0 / chroma_qp_offset=-3 / threads=13 / lookahead_threads=3 / sliced_threads=0 / nr=0 / decimate=0 / interlaced=0 / bluray_compat=0 / constrained_intra=0 / bframes=10 / b_pyramid=2 / b_adapt=2 / b_bias=0 / direct=1 / weightb=1 / open_gop=0 / weightp=2 / keyint=240 / keyint_min=24 / scenecut=40 / intra_refresh=0 / rc_lookahead=60 / rc=crf / mbtree=0 / crf=18.0 / qcomp=0.60 / qpmin=0 / qpmax=69 / qpstep=4 / vbv_maxrate=50000 / vbv_bufsize=62500 / crf_max=0.0 / nal_hrd=none / filler=0 / ip_ratio=1.40 / pb_ratio=1.30 / aq=3:0.80 Language : English Default : Yes Forced : No Color range : Limited Color primaries : BT.709 Transfer characteristics : BT.709 Matrix coefficients : BT.709 Audio ID : 2 Format : AC-3 Format/Info : Audio Coding 3 Commercial name : Dolby Digital Codec ID : A_AC3 Duration : 2 h 4 min Bit rate mode : Constant Bit rate : 448 kb/s Channel(s) : 6 channels Channel layout : L R C LFE Ls Rs Sampling rate : 48.0 kHz Frame rate : 31.250 FPS (1536 SPF) Compression mode : Lossy Stream size : 400 MiB (19%) Title : Dub -Leff Sound Language : Russian Service kind : Complete Main Default : Yes Forced : No AC3_metadata cmixlev : -3.0 dB surmixlev : -3 dB Text #1 ID : 3 Format : UTF-8 Codec ID : S_TEXT/UTF8 Codec ID/Info : UTF-8 Plain Text Duration : 1 h 54 min Bit rate : 0 b/s Frame rate : 0.002 FPS Count of elements : 14 Stream size : 776 Bytes (0%) Title : forced Language : Russian Default : No Forced : No Text #2 ID : 4 Format : UTF-8 Codec ID : S_TEXT/UTF8 Codec ID/Info : UTF-8 Plain Text Duration : 1 h 55 min Bit rate : 48 b/s Frame rate : 0.154 FPS Count of elements : 1074 Stream size : 41.0 KiB (0%) Language : Russian Default : No Forced : No Text #3 ID : 5 Format : UTF-8 Codec ID : S_TEXT/UTF8 Codec ID/Info : UTF-8 Plain Text Duration : 1 h 57 min Bit rate : 30 b/s Frame rate : 0.163 FPS Count of elements : 1144 Stream size : 26.0 KiB (0%) Title : Forever devoted Language : English Default : No Forced : No Menu 00:00:00.000 : en:Chapter 01 00:10:56.625 : en:Chapter 02 00:21:20.083 : en:Chapter 03 00:32:02.958 : en:Chapter 04 00:40:09.250 : en:Chapter 05 00:52:08.458 : en:Chapter 06 01:03:15.125 : en:Chapter 07 01:14:23.750 : en:Chapter 08 01:23:01.625 : en:Chapter 09 01:33:25.083 : en:Chapter 10 01:45:10.125 : en:Chapter 11 01:57:56.958 : en:Chapter 12
Релиз: Присоединяйся к: Кликай на баннеры.

Всего файлов в раздаче: 1 
Hachiko.2023.DUB.BDRip.x264.seleZen.mkv2.04 GB

Похожие раздачи по запросу - Мой
2024-05-07 magnet Мой карпатский дедушка / Мій карпатський дідусь / My Carpathian Grandpa (2023) WEB-DL 1080p | UKR 2.36 GB ↑ 0 ↓ 0
2024-05-06 magnet Прощай, мой друг! / Farewell, My Lovely / A Peng You, Zai Jian! (2021) WEBRip 1080p | L 847.94 MB ↑ 0 ↓ 0
2024-04-25 magnet Мой Хатико / Hachiko / Zhong quan ba gong (2023) BDRip от New-Team | D 1.46 GB ↑ 0 ↓ 0
2024-04-25 magnet Мой Хатико / Hachiko / Zhong quan ba gong (2023) BDRemux 1080p | D 17.06 GB ↑ 0 ↓ 0
2024-03-31 magnet Максим Гаусс - Цикл «Мой район! Лихие 90-е». Книга 1 (2024) FB2 919.36 kB ↑ 0 ↓ 0
2024-03-29 magnet VA - Голос мой услышь (2024) FLAC 215.38 MB ↑ 0 ↓ 0
2024-03-29 magnet VA - Голос мой услышь (2024) MP3 89.07 MB ↑ 0 ↓ 0

Комментарии


Зарегистрируйтесь чтобы добавить комментарий
Торрент клиент
byTorrent - программа для загрузки торрент-файлов.

Скачать byTorrent.exe (1,5 МБ)

Скачать byTorrent.zip (0,6 МБ)

Поддержи torrent.by
российских рублей
(300 российских рублей это 4$)

Обратная связь rss

End game ©