↑↓torrent.by
Поиск
Логин:  Регистрация
Пароль:

Лучшие хиты / Величайшие Хиты / The Greatest Hits (2024) WEB-DLRip от New-Team | P2 | ViruseProject

download Скачать торрент-файл   magnet Магнитная ссылка Размер: 1.46 GB Добавлен: 2024-04-25 05:00
Пиры будут получены из сети DHT
Последний сидер был замечен 2024-05-14 09:00
Лучшие хиты / Величайшие Хиты / The Greatest Hits Год выпуска: 2024 Выпущено: США / Far Hills Pictures, Groundswell Productions, Searchlight Pictures Жанр: мюзикл, фэнтези, драма, мелодрама, комедия Режиссер: Нед Бенсон / Ned Benson В ролях: Люси Бойнтон, Дэвид Коренсвет, Джастин Х. Мин, Ретта, Джексон Келли, Кэндис Джу, Рори Кин, Остин Крут, Томас Очоа, Том И О фильме: Харриет пытается пережить страшную трагедию в своей жизни: ее парень Макс погиб в аварии. Она замечает, что прослушивание любимых песен, напоминающих о нем, переносит её в прошлое, притом буквально. Но в настоящем она знакомится с Дэвидом, который тоже недавно пережил утрату. Харриет начинает с ним сближаться, но не может отпустить Макса. Продолжительность: 01:34:28 Перевод: Профессиональный (двухголосый, закадровый) | ViruseProject Субтитры: Русские (forced, full (ViruseProject)), английские, Раздача от: Автор релиза: JNS82. Формат: AVI Качество: WEB-DLRip Видео: 720x304 (2.35:1), 25.000 fps, XviD MPEG-4 ~ 2015 kbps avg, 0.384 bit/pixel, build 73 Аудио: 48 kHz, AC3 Dolby Digital, 2/0 (L,R) ch, ~ 192 kbps | RUS |
[+] MediaInfoОбщее Полное имя : D:TorrentsThe.Greatest.Hits.2024.WEB-DLRip_от New-Team_by_JNS82The.Greatest.Hits.2024.WEB-DLRip_от New-Team_by_JNS82.avi Формат : AVI Формат/Информация : Audio Video Interleave Настройки формата : BitmapInfoHeader / WaveFormatEx Размер файла : 1,46 Гбайт Продолжительность : 1 ч. 34 мин. Общий битрейт : 2 217 Кбит/сек Частота кадров : 24,000 кадра/сек Программа кодирования : VirtualDubMod 1.5.10.2 (build 2540/release) Библиотека кодирования : VirtualDubMod build 2540/release Видео Идентификатор : 0 Формат : MPEG-4 Visual Профиль формата : Advanced Simple@L5 Настройки формата : BVOP1 / Custom Matrix Параметр BVOP формата : 1 Параметр QPel формата : Нет Параметр GMC формата : Без точки перехода Параметр Matrix формата : Выборочная Идентификатор кодека : XVID Идентификатор кодека/Подсказка : XviD Продолжительность : 1 ч. 34 мин. Битрейт : 2 015 Кбит/сек Ширина : 720 пикселей Высота : 304 пикселя Соотношение сторон дисплея : 2,35:1 Частота кадров : 24,000 кадра/сек Цветовое пространство : YUV Цветовая субдискретизация : 4:2:0 Битовая глубина : 8 бит Тип развёртки : Прогрессивная Метод сжатия : С потерями Бит/(Пиксели*Кадры) : 0.384 Размер потока : 1,33 Гбайт (91%) Библиотека кодирования : XviD 73 Аудио Идентификатор : 1 Формат : AC-3 Формат/Информация : Audio Coding 3 Коммерческое название : Dolby Digital Идентификатор кодека : 2000 Продолжительность : 1 ч. 34 мин. Вид битрейта : Постоянный Битрейт : 192 Кбит/сек Канал(-ы) : 2 канала Расположение каналов : L R Частота дискретизации : 48,0 КГц Частота кадров : 31,250 кадров/сек (1536 SPF) Метод сжатия : С потерями Размер потока : 130 Мбайт (9%) Выравнивание : Разделение по промежуткам Чередование, продолжительность : 42 мс. (1,00 видеокадр) Чередование, продолжительность пред.загр : 500 мс. Вид сервиса : Complete Main Нормализация звука речи : -31 dB dialnorm_Average : -31 dB dialnorm_Minimum : -31 dB dialnorm_Maximum : -31 dB

Всего файлов в раздаче: 4 
The.Greatest.Hits.2024.WEB-DLRip_от New-Team_by_JNS82.avi1.46 GB
The.Greatest.Hits.2024.WEB-DLRip_от New-Team_by_JNS82_[eng].srt74.62 kB
The.Greatest.Hits.2024.WEB-DLRip_от New-Team_by_JNS82_forced_[rus].srt15.98 kB
The.Greatest.Hits.2024.WEB-DLRip_от New-Team_by_JNS82_full_[rus].srt107.58 kB

Похожие раздачи по запросу - Лучшие
2024-04-30 magnet Игорь Тальков - Лучшие песни (2017) FLAC 1.36 GB ↑ 0 ↓ 0
2024-04-25 magnet Лучшие хиты / The Greatest Hits (2024) WEB-DL 1080p | ViruseProject 4.43 GB ↑ 0 ↓ 0
2024-04-09 magnet Виктор Петлюра - Лучшие песни [Remastered] (2024) МР3 469.74 MB ↑ 0 ↓ 0
2024-04-06 magnet Экспресс - Лучшие песни (2020) MP3 136.18 MB ↑ 0 ↓ 0
2024-03-22 magnet Александр Юрпалов - Лучшие песни (2024) MP3 127.62 MB ↑ 0 ↓ 0
2023-10-29 magnet Юрий Шатунов - Здесь был Юра!!! Лучшие песни [Limited Edition] (2023) FLAC 858.02 MB ↑ 0 ↓ 0
2023-08-15 magnet Мир фантастики. Спецвыпуск №12 «Лучшие современные сериалы» (2023) PDF 178.69 MB ↑ 0 ↓ 0

Комментарии


Зарегистрируйтесь чтобы добавить комментарий
Торрент клиент
byTorrent - программа для загрузки торрент-файлов.

Скачать byTorrent.exe (1,5 МБ)

Скачать byTorrent.zip (0,6 МБ)

Поддержи torrent.by
российских рублей
(300 российских рублей это 4$)

Обратная связь rss

End game ©