↑↓torrent.by
Поиск
Логин:  Регистрация
Пароль:

Чужак / Farang / Mayhem! (2023) BDRip-AVC от DoMiNo & селезень | D

download Скачать торрент-файл   magnet Магнитная ссылка Размер: 1.46 GB Добавлен: 2024-04-25 05:00
Пиры будут получены из сети DHT
Последний сидер был замечен 2024-05-05 02:14
Информация о фильме Название: Чужак Оригинальное название: Farang / Mayhem! Год выпуска: 2023 Жанр: Боевик, триллер Режиссер: Ксавье Жанс / Xavier Gens В ролях: Нассим Си Ахмед, Лорин Нунэ, Оливье Гурме, Чанантича Тан-ква, Витхая Пансрингарм, Сахаяк Бунтханакит, Мехди Хадим, Гиги Велиситат, Кеннет Вон О фильме: Самир Барда выходит из тюрьмы после срока за торговлю наркотиками. Самир твёрдо решил завязать с криминалом и начать жизнь с чистого листа. Но бывшие дружки по банде не оставляют парня в покое, пытаясь силой втянуть его обратно. Однажды они нападают на Самира, решив преподать ему урок, но во время драки парень случайно убивает одного из нападавших. Осознав, что теперь во Франции у него нет будущего, Самир сбегает в Таиланд, где позже обзаводится семьёй и начинает жить мирной жизнью. Но спустя 5 лет криминальное прошлое настигает его и здесь. Страна: Франция Студия: France 2 Cinéma, Ink Connection, The, Same Player, Two suns production, WTF Продолжительность: 01:39:40 Перевод: Дублированный | Велес Субтитры: Французские Файл Формат: Matroska Качество: BDRip-AVC Видео: 1024x428 at 24.000 fps, x264@L4.1, ~1716 kbps Аудио: AC3, 6 ch, ~384 kbps - | Русский | Формат субтитров: softsub (SRT) ***Рип от: -=DoMiNo=-
[+] M/IGeneral Unique ID : 190439279830873294557412214989822936058 (0x8F45456AD513386D269EA39E40D0C3FA) Complete name : I:Farang.2023.DUB.BDRip.x264.seleZen.mkv Format : Matroska Format version : Version 4 File size : 1.46 GiB Duration : 1 h 39 min Overall bit rate : 2 097 kb/s Frame rate : 24.000 FPS Movie name : Farang.2023.DUB.BDRip.x264.seleZen Encoded date : 2024-04-24 17:07:13 UTC Writing application : mkvmerge v83.0 ('Circle Of Friends') 64-bit Writing library : libebml v1.4.5 + libmatroska v1.7.1 Cover : Yes Attachments : cover.jpg / small_cover.jpg Video ID : 1 Format : AVC Format/Info : Advanced Video Codec Format profile : High@L4.1 Format settings : CABAC / 14 Ref Frames Format settings, CABAC : Yes Format settings, Reference : 14 frames Codec ID : V_MPEG4/ISO/AVC Duration : 1 h 39 min Bit rate : 1 716 kb/s Width : 1 024 pixels Height : 428 pixels Display aspect ratio : 2.39:1 Frame rate mode : Constant Frame rate : 24.000 FPS Color space : YUV Chroma subsampling : 4:2:0 Bit depth : 8 bits Scan type : Progressive Bits/(Pixel*Frame) : 0.163 Stream size : 1.19 GiB (82%) Title : -=DoMiNo=- Writing library : x264 core 164 r3190 -DoMiNo Encoding settings : cabac=1 / ref=14 / deblock=1:-2:-2 / analyse=0x3:0x133 / me=umh / subme=10 / psy=1 / psy_rd=1.00:0.00 / mixed_ref=1 / me_range=32 / chroma_me=1 / trellis=2 / 8x8dct=1 / cqm=0 / deadzone=21,11 / fast_pskip=0 / chroma_qp_offset=-2 / threads=13 / lookahead_threads=3 / sliced_threads=0 / nr=0 / decimate=0 / interlaced=0 / bluray_compat=0 / constrained_intra=0 / bframes=12 / b_pyramid=2 / b_adapt=2 / b_bias=0 / direct=3 / weightb=1 / open_gop=0 / weightp=2 / keyint=240 / keyint_min=24 / scenecut=40 / intra_refresh=0 / rc_lookahead=60 / rc=2pass / mbtree=0 / bitrate=1716 / ratetol=1.0 / qcomp=0.73 / qpmin=0 / qpmax=69 / qpstep=4 / cplxblur=20.0 / qblur=0.5 / vbv_maxrate=50000 / vbv_bufsize=62500 / nal_hrd=none / filler=0 / ip_ratio=1.20 / pb_ratio=1.40 / aq=3:0.80 Language : English Default : Yes Forced : No Color range : Limited Color primaries : BT.709 Transfer characteristics : BT.709 Matrix coefficients : BT.709 Audio ID : 2 Format : AC-3 Format/Info : Audio Coding 3 Commercial name : Dolby Digital Codec ID : A_AC3 Duration : 1 h 39 min Bit rate mode : Constant Bit rate : 384 kb/s Channel(s) : 6 channels Channel layout : L R C LFE Ls Rs Sampling rate : 48.0 kHz Frame rate : 31.250 FPS (1536 SPF) Compression mode : Lossy Stream size : 274 MiB (18%) Title : Dub Language : Russian Service kind : Complete Main Default : Yes Forced : No AC3_metadata cmixlev : -3.0 dB surmixlev : -6 dB Text ID : 3 Format : UTF-8 Codec ID : S_TEXT/UTF8 Codec ID/Info : UTF-8 Plain Text Duration : 1 h 39 min Bit rate : 27 b/s Frame rate : 0.154 FPS Count of elements : 922 Stream size : 20.0 KiB (0%) Title : Full Language : French Default : No Forced : No Menu 00:00:00.000 : en:Chapter 01 00:11:05.667 : en:Chapter 02 00:17:36.333 : en:Chapter 03 00:24:42.708 : en:Chapter 04 00:34:12.000 : en:Chapter 05 00:46:12.000 : en:Chapter 06 00:54:10.417 : en:Chapter 07 01:03:33.500 : en:Chapter 08 01:12:43.292 : en:Chapter 09 01:23:05.708 : en:Chapter 10 01:29:49.292 : en:Chapter 11 01:35:21.208 : en:Chapter 12
Релиз: Присоединяйся к: Кликай на баннеры.

Всего файлов в раздаче: 1 
Farang.2023.DUB.BDRip.x264.seleZen.mkv1.46 GB

Комментарии

AlexSmoke
кроваво-мясные боёвки хорошо зашли..


Зарегистрируйтесь чтобы добавить комментарий
Торрент клиент
byTorrent - программа для загрузки торрент-файлов.

Скачать byTorrent.exe (1,5 МБ)

Скачать byTorrent.zip (0,6 МБ)

Поддержи torrent.by
российских рублей
(300 российских рублей это 4$)

Обратная связь rss

End game ©