↑↓torrent.by
Поиск
Логин:  Регистрация
Пароль:

Отряд убийц / Te Zhan Xing Dong Dui / Action Team Overlord Flower (2022) WEB-DL 1080p от ELEKTRI4KA | D

download Скачать торрент-файл   magnet Магнитная ссылка Размер: 2.72 GB Добавлен: 2024-04-25 05:00
Пиры будут получены из сети DHT
Последний сидер был замечен 2024-05-04 21:37
Отряд сногшибательных профессиональных киллерш выслеживает предателя компании. «Ангелы Чарли» в китайском варианте. Информация о фильме Название: Отряд убийц Оригинальное название: Te Zhan Xing Dong Dui / Action Team Overlord Flower Год выхода: 2022 Жанр: боевик Режиссер: Лю Баин В ролях: Зина Блахусова, Вэй Чен, Чжан Дун, Ли Мэнмэн, Чжан Шуанли О фильме: В секретном подразделении GWS, выполняющим самые важные правительственные задания, был создан специальный отдел по защите информации. В него вошли только девушки, которые не только невероятно красивы, но и обучены как настоящие профессиональные киллеры: бьют четко, стреляют метко, IQ на уровне ученых. Когда пропадает высококлассный специалист Чжоу Моу, обладающий доступом ко всей информации GWS, руководство подозревает измену. Отряд девушек-убийц получает задание найти Чжоу Моу и разобраться с ним по-серьезному. Выпущено: Китай / Bona Fengxing, Jing qi huan xiang chuan mei, Lu Hua film and television Продолжительность: 01:09:33 Озвучивание: Дублированное | KION Файл Формат: MKV Качество: WEB-DL 1080p Видео: MPEG-4 AVC, 5000 Kb/s, 1920x816 Аудио: Russian: AC3, 640 Kb/s (6 ch) Субтитры: Нет Дополнительно: Нет Релиз группы:  | Мы в Telegram:
[+] Инфо-файл:Complete name: Otryad.ubiyts.2022.WEB-DL.1080p.ELEKTRI4KA.mkv Format: Matroska Format version: Version 4 File size: 2.72 GiB Duration: 1 h 9 min Overall bit rate: 5 601 kb/s Movie name: Otryad.ubiyts.2022.WEB-DL.1080p.ELEKTRI4KA. Encoded date: UTC 2024-04-24 15:33:34 Writing application: mkvmerge v8.3.0 ('Over the Horizon') 64bit Writing library: libebml v1.3.1 + libmatroska v1.4.2 Video ID: 1 Format: AVC Format/Info: Advanced Video Codec Format profile: High@L4 Format settings: CABAC / 3 Ref Frames Format settings, CABAC: Yes Format settings, RefFrames: 3 frames Codec ID: V_MPEG4/ISO/AVC Duration: 1 h 9 min Bit rate: 5 000 kb/s Width: 1 920 pixels Height: 816 pixels Display aspect ratio: 2.35:1 Frame rate mode: Constant Frame rate: 24.000 FPS Color space: YUV Chroma subsampling: 4:2:0 Bit depth: 8 bits Scan type: Progressive Bits/(Pixel*Frame): 0.133 Stream size: 2.41 GiB (89%) Writing library: x264 core 164 r3095 baee400 Encoding settings: cabac=1 / ref=4 / deblock=1:-1:-1 / analyse=0x3:0x133 / me=umh / subme=9 / psy=1 / psy_rd=0.40:1.00 / mixed_ref=1 / me_range=24 / chroma_me=1 / trellis=0 / 8x8dct=1 / cqm=0 / deadzone=21, 11 / fast_pskip=1 / chroma_qp_offset=-2 / threads=3 / lookahead_threads=1 / sliced_threads=0 / nr=0 / decimate=1 / interlaced=0 / bluray_compat=0 / stitchable=1 / constrained_intra=0 / bframes=8 / b_pyramid=1 / b_adapt=0 / b_bias=0 / direct=3 / weightb=1 / open_gop=0 / weightp=2 / keyint=72 / keyint_min=37 / scenecut=0 / intra_refresh=0 / rc_lookahead=40 / rc=2pass / mbtree=1 / bitrate=5000 / ratetol=1.0 / qcomp=0.80 / qpmin=1 / qpmax=69 / qpstep=4 / cplxblur=20.0 / qblur=0.5 / vbv_maxrate=7500 / vbv_bufsize=10000 / nal_hrd=none / filler=0 / ip_ratio=1.40 / aq=1:1.00 Default: Yes Forced: No Color range: Limited Color primaries: BT.709 Transfer characteristics: BT.709 Matrix coefficients: BT.709 Audio ID: 2 Format: AC-3 Format/Info: Audio Coding 3 Commercial name: Dolby Digital Codec ID: A_AC3 Duration: 1 h 9 min Bit rate mode: Constant Bit rate: 640 kb/s Channel(s): 6 channels Channel layout: L R C LFE Ls Rs Sampling rate: 48.0 kHz Frame rate: 31.250 FPS (1536 SPF) Bit depth: 16 bits Compression mode: Lossy Stream size: 318 MiB (11%) Title: DUB (KION) Language: Russian Service kind: Complete Main Default: Yes Forced: Yes
[+] Скриншоты

Всего файлов в раздаче: 1 
Otryad.ubiyts.2022.WEB-DL.1080p.ELEKTRI4KA.mkv2.72 GB

Похожие раздачи по запросу - Отряд
2024-04-25 magnet Отряд убийц / Te Zhan Xing Dong Dui / Action Team Overlord Flower (2022) WEB-DLRip от ELEKTRI4KA | D 1.09 GB ↑ 0 ↓ 0
2023-07-09 magnet Мегавременной отряд / Mega Time Squad (2018) BDRip 720p от ExKinoRay | D 2.68 GB ↑ 0 ↓ 0
2021-10-17 magnet Отряд самоубийц: Миссия навылет / The Suicide Squad (2021) BDRip от Twister & ExKinoRay | D 1.46 GB ↑ 1 ↓ 0
2021-09-02 magnet Отряд самоубийц: Миссия навылет / The Suicide Squad (2021) WEB-DLRip-AVC от MediaBit | iTunes 2.62 GB ↑ 0 ↓ 0
2021-09-02 magnet Отряд самоубийц: Миссия навылет / The Suicide Squad (2021) WEB-DL 720p | D, P, A, L2 | iTunes 6.38 GB ↑ 0 ↓ 0

Комментарии

kam3773
Так чисто промотал.Ножки-Ножки-НОЖКИ!!!!

lev432
Судя по скринам...их главное оружие-это триппер.


Зарегистрируйтесь чтобы добавить комментарий
Торрент клиент
byTorrent - программа для загрузки торрент-файлов.

Скачать byTorrent.exe (1,5 МБ)

Скачать byTorrent.zip (0,6 МБ)

Поддержи torrent.by
российских рублей
(300 российских рублей это 4$)

Обратная связь rss

End game ©