↑↓torrent.by
Поиск
Логин:  Регистрация
Пароль:

Anna Vinnitskaya - Piano Dances [24-bit Hi-Res] (2024) FLAC

download Скачать торрент-файл   magnet Магнитная ссылка Размер: 972.09 MB Добавлен: 2024-04-25 11:00
Пиры будут получены из сети DHT
Последний сидер был замечен 2024-04-26 16:56
Название: Piano Dances Исполнитель: Anna Vinnitskaya Год: 2024 Жанр: Classical Издатель (лейбл): Alpha Classics Продолжительность: 01:02:18 Формат/Кодек: FLAC Тип рипа: Tracks + booklet Битрейт аудио: Lossless Разрядность: 24 Bit/96 kHz
[+] Трек-лист 01. Valses Nobles Et Sentimentales, M. 61: No. 1, Modéré, Très Franc (00:01:22) 02. Valses Nobles Et Sentimentales, M. 61: No. 2, Assez Lent, Avec Une Еxpression Intense (00:02:49) 03. Valses Nobles Et Sentimentales, M. 61: No. 3, Modéré (00:01:30) 04. Valses Nobles Et Sentimentales, M. 61: No. 4, Assez Animé (00:01:08) 05. Valses Nobles Et Sentimentales, M. 61: No. 5, Presque Lent, Dans Un Sentiment Intime (00:01:32) 06. Valses Nobles Et Sentimentales, M. 61: No. 6, Vif (00:00:42) 07. Valses Nobles Et Sentimentales, M. 61: No. 7, Moins Vif (00:02:52) 08. Valses Nobles Et Sentimentales, M. 61: No. 8, Épilogue. Lent (00:04:38) 09. Puppentänze: No. 1, Lyrischer Walzer (00:01:41) 10. Puppentänze: No. 2, Gavotte (00:01:26) 11. Puppentänze: No. 3, Romanze (00:02:08) 12. Puppentänze: No. 4, Polka (00:01:32) 13. Puppentänze: No. 5, Walzer-Scherzo (00:02:22) 14. Puppentänze: No. 6, Leierkasten (00:01:25) 15. Zirkustänze: No. 1, Fanfare (00:00:24) 16. Zirkustänze: No. 2, Boogie-Woogie (00:00:56) 17. Zirkustänze: No. 3, Erster Walzer (00:01:25) 18. Zirkustänze: No. 4, Vier Strophen Vom Heimweh (00:02:04) 19. Zirkustänze: No. 5, Valse Bavaroise (00:01:22) 20. Zirkustänze: No. 6, Valse Sentimentale (00:01:39) 21. Zirkustänze: No. 7, Kinderreim (00:00:48) 22. Zirkustänze: No. 8, Karussell-Walzer (00:01:48) 23. Zirkustänze: No. 9, Hebräische Melodie (00:04:31) 24. Zirkustänze: No. 10, Venezianisches Gondellied (00:03:36) 25. Zirkustänze: No. 11, Bayerisch-Babylonischer Marsch (00:04:16) 26. La Valse, M. 72 (00:12:22)
[+] DRM foobar2000 1.5.5 / Замер динамического диапазона (DR) 1.1.1 ------------------------------------------------------------------------------- Анализ: Anna Vinnitskaya / Piano Dances -------------------------------------------------------------------------------- DR Пики RMS Продолжительность трека -------------------------------------------------------------------------------- DR13 -1.99 дБ -18.80 дБ 1:22 01-Valses Nobles Et Sentimentales, M. 61: No. 1, Modéré, Très Franc DR15 -5.81 дБ -30.52 дБ 2:49 02-Valses Nobles Et Sentimentales, M. 61: No. 2, Assez Lent, Avec Une Еxpression Intense DR12 -10.51 дБ -26.71 дБ 1:30 03-Valses Nobles Et Sentimentales, M. 61: No. 3, Modéré DR11 -10.54 дБ -25.58 дБ 1:08 04-Valses Nobles Et Sentimentales, M. 61: No. 4, Assez Animé DR11 -16.38 дБ -31.61 дБ 1:32 05-Valses Nobles Et Sentimentales, M. 61: No. 5, Presque Lent, Dans Un Sentiment Intime DR11 -8.52 дБ -24.23 дБ 0:42 06-Valses Nobles Et Sentimentales, M. 61: No. 6, Vif DR13 -1.82 дБ -20.92 дБ 2:52 07-Valses Nobles Et Sentimentales, M. 61: No. 7, Moins Vif DR14 -11.76 дБ -31.99 дБ 4:38 08-Valses Nobles Et Sentimentales, M. 61: No. 8, Épilogue. Lent DR13 -5.68 дБ -24.93 дБ 1:41 09-Puppentänze: No. 1, Lyrischer Walzer DR12 -11.39 дБ -26.67 дБ 1:26 10-Puppentänze: No. 2, Gavotte DR12 -12.96 дБ -30.21 дБ 2:08 11-Puppentänze: No. 3, Romanze DR12 -5.67 дБ -24.57 дБ 1:32 12-Puppentänze: No. 4, Polka DR13 -10.24 дБ -28.16 дБ 2:22 13-Puppentänze: No. 5, Walzer-Scherzo DR13 -6.62 дБ -23.98 дБ 1:25 14-Puppentänze: No. 6, Leierkasten DR12 -4.62 дБ -20.17 дБ 0:24 15-Zirkustänze: No. 1, Fanfare DR11 -3.78 дБ -22.41 дБ 0:56 16-Zirkustänze: No. 2, Boogie-Woogie DR12 -6.24 дБ -25.51 дБ 1:25 17-Zirkustänze: No. 3, Erster Walzer DR13 -16.83 дБ -35.63 дБ 2:04 18-Zirkustänze: No. 4, Vier Strophen Vom Heimweh DR13 -3.96 дБ -24.06 дБ 1:22 19-Zirkustänze: No. 5, Valse Bavaroise DR15 -8.96 дБ -30.98 дБ 1:39 20-Zirkustänze: No. 6, Valse Sentimentale DR14 -1.04 дБ -21.32 дБ 0:48 21-Zirkustänze: No. 7, Kinderreim DR13 -1.37 дБ -22.89 дБ 1:48 22-Zirkustänze: No. 8, Karussell-Walzer DR21 -4.80 дБ -31.68 дБ 4:31 23-Zirkustänze: No. 9, Hebräische Melodie DR16 -6.93 дБ -30.58 дБ 3:36 24-Zirkustänze: No. 10, Venezianisches Gondellied DR14 -1.04 дБ -18.50 дБ 4:16 25-Zirkustänze: No. 11, Bayerisch-Babylonischer Marsch DR14 -1.04 дБ -19.37 дБ 12:22 26-La Valse, M. 72 -------------------------------------------------------------------------------- Количество треков: 26 Реальные значения DR: DR13 Частота: 96000 Гц Каналов: 2 Разрядность: 24 Битрейт: 2247 кбит/с Кодек: FLAC ================================================================================
Время раздачи: 24/7 (минимум до появления первых 3-5 скачавших, на раздачи не возвращаюсь) Первое правило участника файлообмена: "Скачал сам - дай скачать другому!"

Всего файлов в раздаче: 28 
01. Valses nobles et sentimentales, M. 61_ No. 1, Modéré, très franc.flac22.33 MB
02. Valses nobles et sentimentales, M. 61_ No. 2, Assez lent, avec une expression intense.flac42.11 MB
03. Valses nobles et sentimentales, M. 61_ No. 3, Modéré.flac23.19 MB
04. Valses nobles et sentimentales, M. 61_ No. 4, Assez animé.flac17.51 MB
05. Valses nobles et sentimentales, M. 61_ No. 5, Presque lent, dans un sentiment intime.flac22.78 MB
06. Valses nobles et sentimentales, M. 61_ No. 6, Vif.flac11.03 MB
07. Valses nobles et sentimentales, M. 61_ No. 7, Moins vif.flac45.01 MB
08. Valses nobles et sentimentales, M. 61_ No. 8, Épilogue. Lent.flac68.45 MB
09. Puppentänze_ No. 1, Lyrischer Walzer.flac26.30 MB
10. Puppentänze_ No. 2, Gavotte.flac22.42 MB
Показать все файлы

Похожие раздачи по запросу - Anna
2024-03-28 magnet Чувственная медсестра / Медсестра / L'infermiera / Nurse Anna / The Secrets of a Sensuous Nurse (1975) WEB-DLRip | L1 745.89 MB ↑ 0 ↓ 0
2023-10-20 magnet Изобретая Анну / Inventing Anna [S01] (2022) WEB-DL 1080p | Невафильм 27.52 GB ↑ 1 ↓ 0
2023-07-20 magnet Труп Анны Фритц / El cadaver de Anna Fritz (2015) ВDRip | А 1.46 GB ↑ 0 ↓ 0

Кто качает (только для создателя раздачи и модераторов): Локальные пиры отсутствуют

Комментарии


Зарегистрируйтесь чтобы добавить комментарий
Торрент клиент
byTorrent - программа для загрузки торрент-файлов.

Скачать byTorrent.exe (1,5 МБ)

Скачать byTorrent.zip (0,6 МБ)

Поддержи torrent.by
российских рублей
(300 российских рублей это 4$)

Обратная связь rss

End game ©