↑↓torrent.by
Поиск
Логин:  Регистрация
Пароль:

Выжившая / Dangerous Waters (2023) HDRip-AVC от ExKinoRay | D

download Скачать торрент-файл   magnet Магнитная ссылка Размер: 742.17 MB Добавлен: 2024-04-25 11:00
Пиры будут получены из сети DHT
Последний сидер был замечен 2024-04-25 11:00
Информация о фильме Название: Выжившая Оригинальное название: Dangerous Waters Год выхода: 2023 Жанр: Триллер Режиссер: Джон Барр В ролях: Одейя Раш, Эрик Дэйн, Саффрон Берроуз, Рэй Лиотта, Рой Эганаян, Терренс Жюльен, Сала Бейкер, Алезйа Гарсия, Омид Задер, Трентон Ростедт О фильме: Говорят, что сущность человека раскрывается перед лицом опасности. Кем на самом деле является Дерек – настоящая загадка для Альмы и ее дочери Роуз. Втроем они отправляются на приятную прогулку под парусами, но неожиданно оказываются атакованными неизвестными. В открытом море вдали от цивилизации рассчитывать остается только на собственные силы. Теперь перед юной Роуз встает выбор: спасаться от голодных акул, вооруженных убийц и разбушевавшейся стихии или же остановиться и дать бой своим страхам. Страна: США Студия: Capstone Group, Rio Luna Films, Signature Films Продолжительность: 01:41:04 Перевод: Дублированный | Мосфильм-Мастер Файл Формат: MKV Качество: HDRip-AVC Видео: MPEG-4 AVC, 716x358, 945 Кбит/с Аудио: AAC-HE, 2 ch, 84 Кбит/с Субтитры: Нет
[+] MIОбщее Уникальный идентификатор : 137904695811213089948370032294475032090 (0x67BF7A72BFF231882EAEDDF93C8B661A) Полное имя : D:MOVIESDangerous.Waters.2023.HDRip-AVC.ExKinoRay .mkv Формат : Matroska Версия формата : Version 4 Размер файла : 742 Мбайт Продолжительность : 1 ч. 41 м. Общий поток : 1 027 Кбит/сек Частота кадров : 23,976 кадра/сек Дата кодирования : 2024-04-25 04:08:25 UTC Программа кодирования : mkvmerge v46.0.0 ('No Deeper Escape') 64-bit Библиотека кодирования : libebml v1.3.10 + libmatroska v1.5.2 Видео Идентификатор : 1 Формат : AVC Формат/Информация : Advanced Video Codec Профиль формата : High@L4.1 Настройки формата : CABAC / 12 Ref Frames Параметр CABAC формата : Да Параметр RefFrames формата : 12 кадров Идентификатор кодека : V_MPEG4/ISO/AVC Продолжительность : 1 ч. 41 м. Битрейт : 945 Кбит/сек Ширина : 716 пикселей Высота : 358 пикселей Соотношение сторон : 2,000 Режим частоты кадров : Постоянный Частота кадров : 23,976 (24000/1001) кадра/сек Цветовое пространство : YUV Субдискретизация насыщенности : 4:2:0 Битовая глубина : 8 бит Тип развёртки : Прогрессивная Бит/(Пиксели*Кадры) : 0.154 Размер потока : 680 Мбайт (92%) Библиотека кодирования : x264 core 164 r3107 a8b68eb Настройки программы : cabac=1 / ref=12 / deblock=1:-3:-2 / analyse=0x3:0x133 / me=umh / subme=10 / psy=1 / psy_rd=1.05:0.10 / mixed_ref=1 / me_range=32 / chroma_me=1 / trellis=2 / 8x8dct=1 / cqm=0 / deadzone=21,11 / fast_pskip=0 / chroma_qp_offset=-3 / threads=6 / lookahead_threads=1 / sliced_threads=0 / nr=0 / decimate=0 / interlaced=0 / bluray_compat=0 / constrained_intra=0 / bframes=11 / b_pyramid=2 / b_adapt=2 / b_bias=0 / direct=3 / weightb=1 / open_gop=0 / weightp=2 / keyint=240 / keyint_min=23 / scenecut=40 / intra_refresh=0 / rc=2pass / mbtree=0 / bitrate=945 / ratetol=1.0 / qcomp=0.60 / qpmin=0 / qpmax=69 / qpstep=4 / cplxblur=20.0 / qblur=0.5 / ip_ratio=1.40 / pb_ratio=1.30 / aq=3:1.00 Язык : English Default : Да Forced : Нет Цветовой диапазон : Limited Основные цвета : BT.709 Характеристики трансфера : BT.709 Коэффициенты матрицы : BT.709 Аудио Идентификатор : 2 Формат : AAC LC SBR Формат/Информация : Advanced Audio Codec Low Complexity with Spectral Band Replication Коммерческое название : HE-AAC Настройки формата : Explicit Идентификатор кодека : A_AAC-2 Продолжительность : 1 ч. 41 м. Битрейт : 84,0 Кбит/сек Каналы : 2 канала Channel layout : L R Частота : 48,0 КГц Частота кадров : 23,438 кадра/сек (2048 SPF) Метод сжатия : С потерями Задержка видео : 31 мс. Размер потока : 60,7 Мбайт (8%) Язык : Russian Default : Да Forced : Нет Меню 00:00:00.000 : en:Chapter 1 00:08:55.618 : en:Chapter 2 00:20:52.042 : en:Chapter 3 00:28:57.986 : en:Chapter 4 00:41:43.001 : en:Chapter 5 00:50:02.958 : en:Chapter 6 01:00:52.023 : en:Chapter 7 01:09:37.757 : en:Chapter 8 01:21:55.994 : en:Chapter 9 01:27:54.936 : en:Chapter 10
[+] Скриншоты

Всего файлов в раздаче: 1 
Dangerous.Waters.2023.HDRip-AVC.ExKinoRay .mkv742.17 MB

Похожие раздачи по запросу - Выжившая
2024-04-19 magnet Выжившая / Dangerous Waters (2023) BDRemux 1080p | D 18.64 GB ↑ 0 ↓ 0
2024-04-17 magnet Выжившая / Dangerous Waters (2023) BDRip от DoMiNo & селезень | D 1.45 GB ↑ 0 ↓ 0
2024-04-17 magnet Выжившая / Dangerous Waters (2023) BDRip 720p от DoMiNo & селезень | D 4.28 GB ↑ 0 ↓ 0
2024-04-16 magnet Выжившая / Dangerous Waters (2023) BDRip 1080p от селезень | D 8.05 GB ↑ 0 ↓ 0
2024-04-16 magnet Выжившая / Dangerous Waters (2023) BDRip-AVC от New-Team | D 1.78 GB ↑ 0 ↓ 0
2024-04-16 magnet Выжившая / Dangerous Waters (2023) BDRip от New-Team | D 1.46 GB ↑ 0 ↓ 0
2024-02-24 magnet Выжившая / Dangerous Waters (2023) WEB-DLRip от MegaPeer | D 1.46 GB ↑ 1 ↓ 0

Кто качает (только для создателя раздачи и модераторов): Локальные пиры отсутствуют

Комментарии


Зарегистрируйтесь чтобы добавить комментарий
Торрент клиент
byTorrent - программа для загрузки торрент-файлов.

Скачать byTorrent.exe (1,5 МБ)

Скачать byTorrent.zip (0,6 МБ)

Поддержи torrent.by
российских рублей
(300 российских рублей это 4$)

Обратная связь rss

End game ©