↑↓torrent.by
Поиск
Логин:  Регистрация
Пароль:

Мой Хатико / Hachiko / Zhong quan ba gong (2023) BDRemux 1080p | D

download Скачать торрент-файл   magnet Магнитная ссылка Размер: 17.06 GB Добавлен: 2024-04-25 11:00
Пиры будут получены из сети DHT
Последний сидер был замечен 2024-04-27 15:03
Информация о фильме Название: Мой Хатико Оригинальное название: Hachiko / Zhong quan ba gong Год выхода: 2023 Жанр: Драма, семейный Режиссер: Сюй Ан В ролях: Фэн Сяоган, Хуан Сюн, Да Хуан, Джоан Чэнь, Бай Цзюйган, Эпонин Хуан, Цянь Бо, Ян Бо, Хуан Сяоцзюй, Хуан Доу О фильме: Начало 2000-х годов. Во время поездки за город с коллегами немолодой университетский преподаватель Чэнь подбирает на дороге грязного и испуганного щенка. Никто не соглашается взять пёсика себе, поэтому мужчине приходится втихаря принести его домой, хотя супруга терпеть не может собак. Пообещав, что найдёт щенку новый дом, Чэнь тем не менее отказывает всем претендентам — так пёс получает кличку Хатико и становится новым членом семьи. Страна: Китай Студия: iQIYI Pictures Продолжительность: 02:05:06 Перевод: Профессиональный (дублированный) | Leff Sound Файл Формат: MKV Качество: BDRemux 1080p Видео: MPEG-4 AVC, 1920x1080 (16:9), 17.0 Mbps, 24.000 fps Аудио 1: Russian: E-AC3 Dolby Digital, 48.0 kHz, 5.1 ch, 448 kbps Аудио 2: Chinese: DTS-HD MA Audio, 48.0 kHz, 5.1 ch, 2110 kbps Субтитры: Русские (Forced, Full), английские, немецкие
[+] Скриншоты
[+] Инфо-файлGeneral Unique ID : 238942040803872879399723931843479514865 (0xB3C29029A9921A02E840AD54806CAEF1) Complete name : Hachiko.2023.REMUX.mkv Format : Matroska Format version : Version 4 File size : 17.1 GiB Duration : 2 h 5 min Overall bit rate mode : Variable Overall bit rate : 19.5 Mb/s Encoded date : UTC 2024-04-24 10:09:30 Writing application : mkvmerge v20.0.0 ('I Am The Sun') 64-bit Writing library : libebml v1.3.5 + libmatroska v1.4.8 Video ID : 1 Format : AVC Format/Info : Advanced Video Codec Format profile : High@L4.1 Format settings : CABAC / 4 Ref Frames Format settings, CABAC : Yes Format settings, Reference frames : 4 frames Codec ID : V_MPEG4/ISO/AVC Duration : 2 h 5 min Bit rate mode : Variable Bit rate : 17.0 Mb/s Maximum bit rate : 35.0 Mb/s Width : 1 920 pixels Height : 1 080 pixels Display aspect ratio : 16:9 Frame rate mode : Constant Frame rate : 24.000 FPS Color space : YUV Chroma subsampling : 4:2:0 Bit depth : 8 bits Scan type : Progressive Bits/(Pixel*Frame) : 0.342 Stream size : 14.8 GiB (87%) Writing library : x264 core 164 r3144 5a9dfdd Encoding settings : cabac=1 / ref=4 / deblock=1:-1:-1 / analyse=0x3:0x113 / me=hex / subme=8 / psy=1 / psy_rd=1.00:0.15 / mixed_ref=1 / me_range=16 / chroma_me=1 / trellis=2 / 8x8dct=1 / cqm=0 / deadzone=21,11 / fast_pskip=1 / chroma_qp_offset=-3 / threads=34 / lookahead_threads=5 / sliced_threads=0 / slices=4 / nr=0 / decimate=1 / interlaced=0 / bluray_compat=1 / constrained_intra=0 / bframes=3 / b_pyramid=0 / b_adapt=1 / b_bias=0 / direct=3 / weightb=1 / open_gop=1 / weightp=1 / keyint=24 / keyint_min=1 / scenecut=40 / intra_refresh=0 / rc_lookahead=24 / rc=2pass / mbtree=1 / bitrate=17000 / ratetol=1.0 / qcomp=0.60 / qpmin=0 / qpmax=69 / qpstep=4 / cplxblur=20.0 / qblur=0.5 / vbv_maxrate=35000 / vbv_bufsize=30000 / nal_hrd=vbr / filler=0 / ip_ratio=1.40 / aq=1:1.00 Language : English Default : Yes Forced : No Color range : Limited Color primaries : BT.709 Transfer characteristics : BT.709 Matrix coefficients : BT.709 Audio #1 ID : 2 Format : E-AC-3 Format/Info : Enhanced AC-3 Commercial name : Dolby Digital Plus Codec ID : A_EAC3 Duration : 2 h 4 min Bit rate mode : Constant Bit rate : 448 kb/s Channel(s) : 6 channels Channel layout : L R C LFE Ls Rs Sampling rate : 48.0 kHz Frame rate : 31.250 FPS (1536 SPF) Compression mode : Lossy Stream size : 400 MiB (2%) Title : Dub Leff Sound, Кинопоиск HD Language : Russian Service kind : Complete Main Default : Yes Forced : No Audio #2 ID : 3 Format : DTS XLL Format/Info : Digital Theater Systems Commercial name : DTS-HD Master Audio Codec ID : A_DTS Duration : 2 h 5 min Bit rate mode : Variable Bit rate : 2 110 kb/s Channel(s) : 6 channels Channel layout : C L R Ls Rs LFE Sampling rate : 48.0 kHz Frame rate : 93.750 FPS (512 SPF) Bit depth : 16 bits Compression mode : Lossless Stream size : 1.84 GiB (11%) Language : Chinese Default : No Forced : No Text #1 ID : 4 Format : UTF-8 Codec ID : S_TEXT/UTF8 Codec ID/Info : UTF-8 Plain Text Duration : 1 h 54 min Bit rate : 0 b/s Count of elements : 14 Stream size : 776 Bytes (0%) Title : forced Language : Russian Default : Yes Forced : No Text #2 ID : 5 Format : UTF-8 Codec ID : S_TEXT/UTF8 Codec ID/Info : UTF-8 Plain Text Duration : 1 h 55 min Bit rate : 48 b/s Count of elements : 1074 Stream size : 41.0 KiB (0%) Language : Russian Default : No Forced : No Text #3 ID : 6 Format : UTF-8 Codec ID : S_TEXT/UTF8 Codec ID/Info : UTF-8 Plain Text Duration : 1 h 57 min Bit rate : 30 b/s Count of elements : 1144 Stream size : 26.0 KiB (0%) Title : Forever devoted Language : English Default : No Forced : No Text #4 ID : 7 Format : PGS Codec ID : S_HDMV/PGS Codec ID/Info : Picture based subtitle format used on BDs/HD-DVDs Duration : 1 h 55 min Bit rate : 18.2 kb/s Count of elements : 2212 Stream size : 15.1 MiB (0%) Language : German Default : No Forced : No Menu 00:00:00.000 : en:Chapter 01 00:10:56.625 : en:Chapter 02 00:21:20.083 : en:Chapter 03 00:32:02.958 : en:Chapter 04 00:40:09.250 : en:Chapter 05 00:52:08.458 : en:Chapter 06 01:03:15.125 : en:Chapter 07 01:14:23.750 : en:Chapter 08 01:23:01.625 : en:Chapter 09 01:33:25.083 : en:Chapter 10 01:45:10.125 : en:Chapter 11 01:57:56.958 : en:Chapter 12

Всего файлов в раздаче: 1 
Hachiko.2023.REMUX.mkv17.06 GB

Похожие раздачи по запросу - Мой
2024-05-07 magnet Мой карпатский дедушка / Мій карпатський дідусь / My Carpathian Grandpa (2023) WEB-DL 1080p | UKR 2.36 GB ↑ 0 ↓ 1
2024-05-06 magnet Прощай, мой друг! / Farewell, My Lovely / A Peng You, Zai Jian! (2021) WEBRip 1080p | L 847.94 MB ↑ 0 ↓ 0
2024-04-25 magnet Мой Хатико / Hachiko / Zhong quan ba gong (2023) BDRip от New-Team | D 1.46 GB ↑ 0 ↓ 0
2024-04-25 magnet Мой Хатико / Hachiko / Zhong quan ba gong (2023) BDRip-AVC от DoMiNo & селезень | D 2.04 GB ↑ 0 ↓ 0
2024-03-31 magnet Максим Гаусс - Цикл «Мой район! Лихие 90-е». Книга 1 (2024) FB2 919.36 kB ↑ 0 ↓ 0
2024-03-29 magnet VA - Голос мой услышь (2024) FLAC 215.38 MB ↑ 0 ↓ 0
2024-03-29 magnet VA - Голос мой услышь (2024) MP3 89.07 MB ↑ 0 ↓ 0

Кто качает (только для создателя раздачи и модераторов): Локальные пиры отсутствуют

Комментарии


Зарегистрируйтесь чтобы добавить комментарий
Торрент клиент
byTorrent - программа для загрузки торрент-файлов.

Скачать byTorrent.exe (1,5 МБ)

Скачать byTorrent.zip (0,6 МБ)

Поддержи torrent.by
российских рублей
(300 российских рублей это 4$)

Обратная связь rss

End game ©