↑↓torrent.by
Поиск
Логин:  Регистрация
Пароль:

Мой Хатико / Hachiko / Zhong quan ba gong (2023) BDRip от New-Team | D

download Скачать торрент-файл   magnet Магнитная ссылка Размер: 1.46 GB Добавлен: 2024-04-25 11:00
Пиры будут получены из сети DHT
Последний сидер был замечен 2024-06-12 18:07
Мой Хатико / Hachiko / Zhong quan ba gong Год выпуска: 2023 Выпущено: Китай / iQIYI Pictures Жанр: драма, семейный Режиссер: Сюй Ан / Xu Ang В ролях: Фэн Сяоган, Хуан Сюн, Да Хуан, Джоан Чэнь, Бай Цзюйган, Эпонин Хуан, Цянь Бо, Ян Бо, Хуан Сяоцзюй, Хуан Доу О фильме: Начало 2000-х годов. Во время поездки за город с коллегами немолодой университетский преподаватель Чэнь подбирает на дороге грязного и испуганного щенка. Никто не соглашается взять пёсика себе, поэтому мужчине приходится втихаря принести его домой, хотя супруга терпеть не может собак. Пообещав, что найдёт щенку новый дом, Чэнь тем не менее отказывает всем претендентам — так пёс получает кличку Хатико и становится новым членом семьи. Продолжительность: 02:05:06 Перевод: Профессиональный (полное дублирование) | Leff Sound Субтитры: Русские (forced, full), английские (full), Раздача от: Автор релиза: JNS82. Формат: AVI Качество: BDRip | Hachiko.2023.REMUX Видео: 720x304 (2.35:1), 24,000 fps, XviD MPEG-4 ~ 1281 kbps avg, 0.244 bit/pixel, build 74 Аудио: 48 kHz, AC3 Dolby Digital, 3/2 (L,C,R,l,r) + LFE ch, ~ 384 kbps | RUS |
[+] MediaInfoОбщее Полное имя : D:TorrentsHachiko.2023.BDRip_от New-Team_by_JNS82Hachiko.2023.BDRip_от New-Team_by_JNS82.avi Формат : AVI Формат/Информация : Audio Video Interleave Настройки формата : WaveFormatEx Размер файла : 1,46 Гбайт Продолжительность : 2 ч. 5 мин. Общий битрейт : 1 674 Кбит/сек Частота кадров : 24,000 кадра/сек Программа кодирования : VirtualDubMod 1.5.10.2 (build 2540/release) Библиотека кодирования : VirtualDubMod build 2540/release Видео Идентификатор : 0 Формат : MPEG-4 Visual Профиль формата : Advanced Simple@L5 Настройки формата : BVOP1 / Custom Matrix Параметр BVOP формата : 1 Параметр QPel формата : Нет Параметр GMC формата : Без точки перехода Параметр Matrix формата : Выборочная Идентификатор кодека : XVID Идентификатор кодека/Подсказка : XviD Продолжительность : 2 ч. 5 мин. Битрейт : 1 281 Кбит/сек Ширина : 720 пикселей Высота : 304 пикселя Соотношение сторон дисплея : 2,35:1 Частота кадров : 24,000 кадра/сек Цветовое пространство : YUV Цветовая субдискретизация : 4:2:0 Битовая глубина : 8 бит Тип развёртки : Прогрессивная Метод сжатия : С потерями Бит/(Пиксели*Кадры) : 0.244 Размер потока : 1,12 Гбайт (77%) Библиотека кодирования : XviD 74 Аудио Идентификатор : 1 Формат : AC-3 Формат/Информация : Audio Coding 3 Коммерческое название : Dolby Digital Идентификатор кодека : 2000 Продолжительность : 2 ч. 4 мин. Вид битрейта : Постоянный Битрейт : 384 Кбит/сек Канал(-ы) : 6 каналов Расположение каналов : L R C LFE Ls Rs Частота дискретизации : 48,0 КГц Частота кадров : 31,250 кадров/сек (1536 SPF) Метод сжатия : С потерями Размер потока : 343 Мбайт (23%) Выравнивание : Разделение по промежуткам Чередование, продолжительность : 42 мс. (1,00 видеокадр) Чередование, продолжительность пред.загр : 500 мс. Вид сервиса : Complete Main Нормализация звука речи : -31 dB cmixlev : -4.5 dB surmixlev : -6 dB dialnorm_Average : -31 dB dialnorm_Minimum : -31 dB dialnorm_Maximum : -31 dB

Всего файлов в раздаче: 4 
Hachiko.2023.BDRip_от New-Team_by_JNS82.avi1.46 GB
Hachiko.2023.BDRip_от New-Team_by_JNS82_[eng].srt70.74 kB
Hachiko.2023.BDRip_от New-Team_by_JNS82_forced_[rus].srt1.29 kB
Hachiko.2023.BDRip_от New-Team_by_JNS82_full_[rus].srt82.94 kB

Похожие раздачи по запросу - Мой
2024-06-08 magnet Томас Лиготти - Пока мой труд не завершен [Сборник] (2024) MP3 607.21 MB ↑ 0 ↓ 0
2024-06-03 magnet Мой домашний крокодил / Lyle, Lyle, Crocodile (2022) BDRip 720p от DoMiNo & селезень | D, P 3.86 GB ↑ 0 ↓ 0
2024-06-03 magnet Мой домашний крокодил / Мій домашній крокодил / Lyle, Lyle, Crocodile (2022) BDRip 1080p | D | UKR 12.41 GB ↑ 0 ↓ 0
2024-05-27 magnet Мой кузен / Mon cousin (2020) BDRip | P 1.46 GB ↑ 0 ↓ 0
2024-05-25 magnet Невидимый мой (2023) WEB-DL 1080p от ELEKTRI4KA 3.62 GB ↑ 0 ↓ 0
2024-05-25 magnet Невидимый мой (2023) WEB-DLRip от ELEKTRI4KA 1.46 GB ↑ 0 ↓ 0
2024-03-29 magnet VA - Голос мой услышь (2024) MP3 89.07 MB ↑ 0 ↓ 0

Комментарии


Зарегистрируйтесь чтобы добавить комментарий
Торрент клиент
byTorrent - программа для загрузки торрент-файлов.

Скачать byTorrent.exe (1,5 МБ)

Скачать byTorrent.zip (0,6 МБ)

Поддержи torrent.by
российских рублей
(300 российских рублей это 4$)

Обратная связь rss

End game ©