↑↓torrent.by
Поиск
Логин:  Регистрация
Пароль:

Охота на киллера / Cult Killer (2024) WEB-DLRip 1080p от ELEKTRI4KA | D

download Скачать торрент-файл   magnet Магнитная ссылка Размер: 6.88 GB Добавлен: 2024-04-25 11:00
Пиры будут получены из сети DHT
Последний сидер был замечен 2024-05-19 11:12
Информация о фильме Название: Охота на киллера Оригинальное название: Cult Killer Год выхода: 2024 Жанр: триллер, драма, криминал, детектив Режиссер: Джон Кейес В ролях: Шелли Хенниг, Антонио Бандерас, Элис Ив, Олуэн Фуэре, Ник Даннинг, Ким ДеЛонги, Пол Рейд, Мэттью Томпкинс, Кваку Форчун, Джон Уоллман О фильме: Когда убивают известного частного детектива Майка Таллини, за дело берется его протеже Кэсси Холт. В свое время он стал единственным человеком, который отнесся к Кэсси с уважением и заботой, помог ей завязать с мрачным прошлым. Поэтому после его жестокого убийства Кэсси решительно настроена найти виновного, лишившего ее самого дорогого. Во время расследования она вынуждена сотрудничать с убийцей, чтобы раскрыть ужасные тайны города и восстановить справедливость. Выпущено: США / Yale Productions, BondIt Media Capital, Buffalo 8 Productions Продолжительность: 01:44:36 Озвучивание: Дублированное | Akimbo Production Файл Формат: MKV Качество: WEB-DL 1080p | AMZN Видео: MPEG-4 AVC, 8005 Kb/s, 1920x800 Аудио: Russian: AC3, 384 Kb/s (6 ch) / E-AC3, 384 Kb/s (6 ch), English: E-AC3, 640 Kb/s (6 ch) Субтитры: Russian (Full Al), English Дополнительно: Нет Релиз группы: Мы в Telegram:
[+] MediaInfo:Complete name : Ohota.na.killera.2024.AMZN.WEB-DL.1080p.ELEKTRI4KA.mkv Format : Matroska Format version : Version 4 File size : 6.88 GiB Duration : 1 h 44 min Overall bit rate : 9 416 kb/s Movie name : Ohota.na.killera.2024.AMZN.WEB-DL.1080p.ELEKTRI4KA. Encoded date : UTC 2024-04-24 22:44:03 Writing application : mkvmerge v8.3.0 ('Over the Horizon') 64bit Writing library : libebml v1.3.1 + libmatroska v1.4.2 Video ID : 1 Format : AVC Format/Info : Advanced Video Codec Format profile : High@L4 Format settings : CABAC / 4 Ref Frames Format settings, CABAC : Yes Format settings, Reference frames : 4 frames Codec ID : V_MPEG4/ISO/AVC Duration : 1 h 44 min Bit rate mode : Constant Bit rate : 8 005 kb/s Nominal bit rate : 10 000 kb/s Width : 1 920 pixels Height : 800 pixels Display aspect ratio : 2.40:1 Frame rate mode : Constant Frame rate : 23.976 (24000/1001) FPS Color space : YUV Chroma subsampling : 4:2:0 Bit depth : 8 bits Scan type : Progressive Bits/(Pixel*Frame) : 0.217 Stream size : 5.85 GiB (85%) Language : English Default : Yes Forced : No Color range : Limited Color primaries : BT.709 Transfer characteristics : BT.709 Matrix coefficients : BT.709 Audio #1 ID : 2 Format : AC-3 Format/Info : Audio Coding 3 Commercial name : Dolby Digital Codec ID : A_AC3 Duration : 1 h 44 min Bit rate mode : Constant Bit rate : 384 kb/s Channel(s) : 6 channels Channel layout : L R C LFE Ls Rs Sampling rate : 48.0 kHz Frame rate : 31.250 FPS (1536 SPF) Compression mode : Lossy Stream size : 287 MiB (4%) Title : DUB AC3 (Akimbo Production) Language : Russian Service kind : Complete Main Default : Yes Forced : Yes Audio #2 ID : 3 Format : E-AC-3 Format/Info : Enhanced AC-3 Commercial name : Dolby Digital Plus Codec ID : A_EAC3 Duration : 1 h 44 min Bit rate mode : Constant Bit rate : 384 kb/s Channel(s) : 6 channels Channel layout : L R C LFE Ls Rs Sampling rate : 48.0 kHz Frame rate : 31.250 FPS (1536 SPF) Compression mode : Lossy Stream size : 287 MiB (4%) Title : DUB EAC3 (Akimbo Production) Language : Russian Service kind : Complete Main Default : No Forced : No Audio #3 ID : 4 Format : E-AC-3 Format/Info : Enhanced AC-3 Commercial name : Dolby Digital Plus Codec ID : A_EAC3 Duration : 1 h 44 min Bit rate mode : Constant Bit rate : 640 kb/s Channel(s) : 6 channels Channel layout : L R C LFE Ls Rs Sampling rate : 48.0 kHz Frame rate : 31.250 FPS (1536 SPF) Compression mode : Lossy Stream size : 479 MiB (7%) Title : Original Language : English Service kind : Complete Main Default : No Forced : No Text #1 ID : 5 Format : UTF-8 Codec ID : S_TEXT/UTF8 Codec ID/Info : UTF-8 Plain Text Duration : 1 h 38 min Bit rate : 96 b/s Count of elements : 1528 Stream size : 69.7 KiB (0%) Title : Full Al Language : Russian Default : No Forced : No Text #2 ID : 6 Format : UTF-8 Codec ID : S_TEXT/UTF8 Codec ID/Info : UTF-8 Plain Text Duration : 1 h 35 min Bit rate : 61 b/s Count of elements : 1481 Stream size : 43.0 KiB (0%) Language : English Default : No Forced : No Text #3 ID : 7 Format : UTF-8 Codec ID : S_TEXT/UTF8 Codec ID/Info : UTF-8 Plain Text Duration : 1 h 35 min Bit rate : 65 b/s Count of elements : 1585 Stream size : 46.0 KiB (0%) Title : SDH Language : English Default : No Forced : No
[+] Скриншоты

Всего файлов в раздаче: 1 
Ohota.na.killera.2024.AMZN.WEB-DL.1080p.ELEKTRI4KA.mkv6.88 GB

Похожие раздачи по запросу - Охота
Вчера magnet Ведьмак 3: Дикая Охота / The Witcher 3: Wild Hunt - Complete Edition [v 4.04 + DLCs] (2015/2022) PC | Steam-Rip от =nemos= 61.54 GB ↑ 0 ↓ 0
2024-05-09 magnet Семейка Книккерч и охота на копа / Knyckertz & snutjakten (2023) WEBRip 1080p | ViruseProject 3.75 GB ↑ 0 ↓ 0
2024-04-25 magnet Охота на киллера / Cult Killer (2024) WEB-DLRip от ELEKTRI4KA | D 1.46 GB ↑ 0 ↓ 0
2024-04-25 magnet Охота на киллера / Cult Killer (2024) WEB-DL 1080p от New-Team | D, P2 6.74 GB ↑ 0 ↓ 0
2024-04-23 magnet Охота за убийцей / Manhunt [S01] (2024) WEB-DL 1080p | P | TVShows, HDRezka Studio 28.95 GB ↑ 0 ↓ 0
2024-04-20 magnet Охота за убийцей / Manhunt [S01] (2024) WEBRip 1080p от Kerob | L 13.43 GB ↑ 0 ↓ 0
2024-04-20 magnet Охота за убийцей / Manhunt [S01] (2024) WEBRip от Kerob | L 2.72 GB ↑ 0 ↓ 0

Комментарии


Зарегистрируйтесь чтобы добавить комментарий
Торрент клиент
byTorrent - программа для загрузки торрент-файлов.

Скачать byTorrent.exe (1,5 МБ)

Скачать byTorrent.zip (0,6 МБ)

Поддержи torrent.by
российских рублей
(300 российских рублей это 4$)

Обратная связь rss

End game ©