↑↓torrent.by
Поиск
Логин:  Регистрация
Пароль:

Варкрафт / Warcraft [2016, фэнтези, боевик, приключения, MP4, BDRip 720p] Dub

download Скачать торрент-файл   magnet Магнитная ссылка Размер: 2.28 GB Добавлен: il68k 2024-04-25 11:53
Пиры будут получены из сети DHT
Последний сидер был замечен 2024-05-17 09:04
Варкрафт / Warcraft

«Два мира - одна судьба» Год выпуска: 24 мая 2016 Страна: Китай, Канада, Япония, США Жанр: фэнтези, боевик, приключения
Режиссер: Дункан Джонс
В ролях: Трэвис Фиммел, Пола Пэттон, Бен Фостер, Доминик Купер, Тоби Кеббелл, Бен Шнетцер, Роберт Казински, Клэнси Браун, Дэниэл Ву, Рут Негга
Описание: Первая высокобюджетная экранизация, созданная по вселенной компьютерной игре «Варкрафт». Бесчисленные орды диких орков бегут со своей гибнущей родины в новый мир, где в мирной идиллии живут племена людей и кланы волшебников. Древние силы зла смертельной угрозой нависли над землями королевства Азерот – кто выйдет победителем из решающей схватки?

Продолжительность: 02:03:07 Перевод: Дублированный Оригинальная дорожка: нет Качество видео: BDRip Исходник: Blu-Ray Remux (1080p) Формат: mp4 Видео кодек: MPEG-4 AVC Аудио кодек: AAC Видео: 1280x528 at 23.976 fps, AVC at 2 516 kbps avg, 0.155 bit/pixel Аудио Rus: 48.0 KHz, AAC, 2 ch, 128.0 Kbps Субтитры: нет Навигация по главам: нет Релиз от: KinoGadget
[+] MediaInfo
General
Complete name                            : Varkraft_2016_KinoGadget.mp4
Format                                   : MPEG-4
Format profile                           : Base Media
Codec ID                                 : isom
File size                                : 2.28 GiB
Duration                                 : 2h 3mn
Overall bit rate mode                    : Variable
Overall bit rate                         : 2 653 Kbps
Movie name                               : Варкрафт
Performer                                : Дункан Джонс
Genre                                    : Action, Adventure
Recorded date                            : 2016
Encoded date                             : UTC 2016-11-01 07:11:46
Tagged date                              : UTC 2016-11-01 07:33:15
Cover                                    : Yes
iTunEXTC                                 : mpaa|PG-13|300|

ldes                                     : Веками магия и неприступные стены защищали людей от любых напастей. Но древнее зло, побежденное и забытое тысячелетия назад, пробудилось. /  / В самом сердце королевства открылся темный портал, и раса невиданных существ наводнила земли Азерота. Так начались события, призванные навсегда изменить судьбу этого мира.
hdvd                                     : 1
stik                                     : 9

Video
ID                                       : 1
Format                                   : AVC
Format/Info                              : Advanced Video Codec
Format profile                           : High@L4.1
Format settings, CABAC                   : Yes
Format settings, ReFrames                : 8 frames
Codec ID                                 : avc1
Codec ID/Info                            : Advanced Video Coding
Duration                                 : 2h 3mn
Bit rate                                 : 2 516 Kbps
Maximum bit rate                         : 16.0 Mbps
Width                                    : 1 280 pixels
Height                                   : 528 pixels
Display aspect ratio                     : 2.40:1
Frame rate mode                          : Constant
Frame rate                               : 23.976 fps
Color space                              : YUV
Chroma subsampling                       : 4:2:0
Bit depth                                : 8 bits
Scan type                                : Progressive
Bits/(Pixel*Frame)                       : 0.155
Stream size                              : 2.16 GiB (95%)
Writing library                          : x264 core 148 r2638 7599210
Encoding settings                        : cabac=1 / ref=8 / deblock=1:-1:-1 / analyse=0x3:0x133 / me=umh / subme=7 / psy=1 / psy_rd=1.00:0.15 / mixed_ref=1 / me_range=24 / chroma_me=1 / trellis=2 / 8x8dct=1 / cqm=0 / deadzone=21,11 / fast_pskip=1 / chroma_qp_offset=-3 / threads=3 / lookahead_threads=1 / sliced_threads=0 / nr=0 / decimate=1 / interlaced=0 / bluray_compat=0 / constrained_intra=0 / bframes=6 / b_pyramid=2 / b_adapt=2 / b_bias=0 / direct=3 / weightb=1 / open_gop=0 / weightp=2 / keyint=240 / keyint_min=23 / scenecut=40 / intra_refresh=0 / rc_lookahead=60 / rc=crf / mbtree=1 / crf=21.0 / qcomp=0.60 / qpmin=0 / qpmax=69 / qpstep=4 / ip_ratio=1.40 / aq=1:1.00
Encoded date                             : UTC 2016-11-01 06:06:01
Tagged date                              : UTC 2016-11-01 07:13:09

Audio
ID                                       : 2
Format                                   : AAC
Format/Info                              : Advanced Audio Codec
Format profile                           : LC
Codec ID                                 : 40
Duration                                 : 2h 3mn
Bit rate mode                            : Variable
Bit rate                                 : 128 Kbps
Maximum bit rate                         : 135 Kbps
Channel(s)                               : 2 channels
Channel positions                        : Front: L R
Sampling rate                            : 48.0 KHz
Compression mode                         : Lossy
Stream size                              : 113 MiB (5%)
Language                                 : Russian
Encoded date                             : UTC 2016-10-31 12:15:27
Tagged date                              : UTC 2016-11-01 07:13:09
[+] Скриншоты

Всего файлов в раздаче: 1 
Varkraft_2016_KinoGadget.mp42.28 GB

Комментарии


Зарегистрируйтесь чтобы добавить комментарий
Торрент клиент
byTorrent - программа для загрузки торрент-файлов.

Скачать byTorrent.exe (1,5 МБ)

Скачать byTorrent.zip (0,6 МБ)

Поддержи torrent.by
российских рублей
(300 российских рублей это 4$)

Обратная связь rss

End game ©