↑↓torrent.by
Поиск
Логин:  Регистрация
Пароль:

Cadence Weapon - Rollercoaster [24-bit Hi-Res] (2024) FLAC

download Скачать торрент-файл   magnet Магнитная ссылка Размер: 386.50 MB Добавлен: 2024-04-25 17:00
Пиры будут получены из сети DHT
Последний сидер был замечен 2024-04-26 16:56
Название: Rollercoaster Исполнитель: Cadence Weapon Год: 2024 Жанр: Hip-Hop, Rap Издатель (лейбл): MNRK Music Group Продолжительность: 00:34:23 Формат/Кодек: FLAC Тип рипа: Tracks Битрейт аудио: Lossless Разрядность: 24 Bit/44,1 kHz
[+] Трек-лист 01. Cadence £∞™.Mp3 (00:01:18) 02. Press Eject (00:02:49) 03. Exceptional (00:02:12) 04. My Computer (00:02:57) 05. Blue Screen (00:02:27) 06. Lexicon (00:02:13) 07. Yastm.M4a (00:01:09) 08. Eft (00:03:22) 09. Bots (00:03:04) 10. Sting (00:02:03) 11. Shadowbanned (00:02:44) 12. You Are Special To Me (00:01:53) 13. Alarms (00:02:45) 14. Tl;Dr (00:03:27)
[+] DRM foobar2000 1.5.5 / Замер динамического диапазона (DR) 1.1.1 ------------------------------------------------------------------------------- Анализ: Cadence Weapon / Rollercoaster -------------------------------------------------------------------------------- DR Пики RMS Продолжительность трека -------------------------------------------------------------------------------- DR11 -2.65 дБ -15.51 дБ 1:18 01-Cadence £∞™.Mp3 DR4 -0.40 дБ -8.37 дБ 2:49 02-Press Eject DR6 -0.40 дБ -9.60 дБ 2:12 03-Exceptional DR6 -0.40 дБ -7.11 дБ 2:57 04-My Computer DR6 -0.40 дБ -8.13 дБ 2:27 05-Blue Screen DR6 -0.40 дБ -8.85 дБ 2:13 06-Lexicon DR10 -0.40 дБ -15.09 дБ 1:09 07-Yastm.M4a DR6 -0.40 дБ -8.42 дБ 3:22 08-Eft DR6 -0.40 дБ -7.67 дБ 3:04 09-Bots DR6 -0.40 дБ -10.24 дБ 2:03 10-Sting DR8 -0.40 дБ -10.10 дБ 2:44 11-Shadowbanned DR7 -0.40 дБ -8.36 дБ 1:53 12-You Are Special To Me DR6 -0.40 дБ -9.13 дБ 2:45 13-Alarms DR6 -0.40 дБ -8.09 дБ 3:27 14-Tl;Dr -------------------------------------------------------------------------------- Количество треков: 14 Реальные значения DR: DR7 Частота: 44100 Гц Каналов: 2 Разрядность: 24 Битрейт: 1404 кбит/с Кодек: FLAC ================================================================================
Время раздачи: 24/7 (минимум до появления первых 3-5 скачавших, на раздачи не возвращаюсь) Первое правило участника файлообмена: "Скачал сам - дай скачать другому!"

Всего файлов в раздаче: 15 
01. Cadence £∞™.mp3.flac15.19 MB
02. Press Eject.flac32.67 MB
03. Exceptional.flac25.25 MB
04. My Computer.flac35.46 MB
05. Blue Screen.flac27.86 MB
06. Lexicon.flac23.52 MB
07. YASTM.m4a.flac10.08 MB
08. EFT.flac41.33 MB
09. Bots.flac34.78 MB
10. Sting.flac24.13 MB
Показать все файлы

Комментарии


Зарегистрируйтесь чтобы добавить комментарий
Торрент клиент
byTorrent - программа для загрузки торрент-файлов.

Скачать byTorrent.exe (1,5 МБ)

Скачать byTorrent.zip (0,6 МБ)

Поддержи torrent.by
российских рублей
(300 российских рублей это 4$)

Обратная связь rss

End game ©