↑↓torrent.by
Поиск
Логин:  Регистрация
Пароль:

Код 8: Часть 2 / Код 8: Частина II / Code 8: Part II (2024) WEB-DL-HEVC 2160p | 4K | HDR | Dolby Vision Profile 8 | D | Netflix | UKR

download Скачать торрент-файл   magnet Магнитная ссылка Размер: 9.17 GB Раздают: 0 Качают: 1 Добавлен: 2024-04-25 17:00
Пиры будут получены из сети DHT
Последний сидер был замечен 2024-04-25 17:00
Информация о фильме Название: Код 8: Часть 2 Оригинальное название: Code 8: Part II Год выхода: 2024 Жанр: фантастика, боевик, триллер, драма, криминал Режиссер: Джефф Чан В ролях: Робби Амелл, Стивен Амелл, Аарон Абрамс, Джин Юн, Сирена Гуламгаус, Алекс Маллари мл., Натали Ликонти, Серена Пармар, Мо Жюди-Ламур, Mikayla SwamiNathan О фильме: Девушка с аномальными способностями случайно становится невольной свидетельницей жестокого убийства своего родного брата. Стремясь воздать убийцам по заслугам, она обращается за помощью к бывшему заключенному и его подельнику. Объединив силы, они быстро выходят на след убийц — коррумпированных полицейских, которые, чтобы защитить себя от разоблачения, используют самые совершенные роботизированные технологии Страна: США, Канада Продолжительность: 01:40:27 Перевод: Профессиональный дублированный | Le Doyen / Netflix (Украинский) Файл Кодек: H.265 Качество: WEB-DL 2160p Видео: HEVC, HDR10, Dolby Vision Profile 8, 3840x2160 (16:9), 24.000 fps, 11,6 Mb/s, 10 bit Аудио 1: E-AC3 JOC, 48.0 kHz, 6 ch, 768 kb/s | UKR Аудио 2: E-AC3 JOC, 48.0 kHz, 6 ch, 768 kb/s | ENG Субтитры: украинские (forced, full), английские (full, SDH) Трейлер
[+] MIGeneral Unique ID : 319783171223034429947551891114869218067 (0xF093FF9ECEA35A167BB745D203855B13) Complete name : Code 8 Part II (2024) WEB-DL 2160p HDR DV Ukr.Eng .mkv Format : Matroska Format version : Version 4 File size : 9.17 GiB Duration : 1 h 40 min Overall bit rate : 13.1 Mb/s Movie name : Code 8: Part II (2024) Encoded date : UTC 2024-04-23 17:52:06 Writing application : mkvmerge v83.0 ('Circle Of Friends') 64-bit Writing library : libebml v1.4.5 + libmatroska v1.7.1 Cover : Yes Attachments : Cover.jpg Video ID : 1 Format : HEVC Format/Info : High Efficiency Video Coding Format profile : Main 10@L5@Main HDR format : Dolby Vision, Version 1.0, dvhe.08.06, BL+RPU, HDR10 compatible / SMPTE ST 2086, HDR10 compatible Codec ID : V_MPEGH/ISO/HEVC Duration : 1 h 40 min Bit rate : 11.6 Mb/s Width : 3 840 pixels Height : 2 160 pixels Display aspect ratio : 16:9 Frame rate mode : Constant Frame rate : 24.000 FPS Color space : YUV Chroma subsampling : 4:2:0 (Type 2) Bit depth : 10 bits Bits/(Pixel*Frame) : 0.058 Stream size : 8.09 GiB (88%) Default : Yes Forced : No Color range : Limited Color primaries : BT.2020 Transfer characteristics : PQ Matrix coefficients : BT.2020 non-constant Mastering display color primaries : Display P3 Mastering display luminance : min: 0.0001 cd/m2, max: 1000 cd/m2 Maximum Content Light Level : 1005 cd/m2 Maximum Frame-Average Light Level : 752 cd/m2 Audio #1 ID : 2 Format : E-AC-3 JOC Format/Info : Enhanced AC-3 with Joint Object Coding Commercial name : Dolby Digital Plus with Dolby Atmos Codec ID : A_EAC3 Duration : 1 h 40 min Bit rate mode : Constant Bit rate : 768 kb/s Channel(s) : 6 channels Channel layout : L R C LFE Ls Rs Sampling rate : 48.0 kHz Frame rate : 31.250 FPS (1536 SPF) Compression mode : Lossy Stream size : 552 MiB (6%) Title : DUB (Le Doyen / Netflix) Language : Ukrainian Service kind : Complete Main Default : Yes Forced : No Complexity index : 16 Number of dynamic objects : 15 Bed channel count : 1 channel Bed channel configuration : LFE Audio #2 ID : 3 Format : E-AC-3 JOC Format/Info : Enhanced AC-3 with Joint Object Coding Commercial name : Dolby Digital Plus with Dolby Atmos Codec ID : A_EAC3 Duration : 1 h 40 min Bit rate mode : Constant Bit rate : 768 kb/s Channel(s) : 6 channels Channel layout : L R C LFE Ls Rs Sampling rate : 48.0 kHz Frame rate : 31.250 FPS (1536 SPF) Compression mode : Lossy Stream size : 552 MiB (6%) Title : Original Language : English Service kind : Complete Main Default : No Forced : No Complexity index : 16 Number of dynamic objects : 15 Bed channel count : 1 channel Bed channel configuration : LFE Text #1 ID : 4 Format : UTF-8 Codec ID : S_TEXT/UTF8 Codec ID/Info : UTF-8 Plain Text Duration : 1 h 28 min Bit rate : 2 b/s Count of elements : 26 Stream size : 1.36 KiB (0%) Title : Forced Language : Ukrainian Default : Yes Forced : No Text #2 ID : 5 Format : UTF-8 Codec ID : S_TEXT/UTF8 Codec ID/Info : UTF-8 Plain Text Duration : 1 h 37 min Bit rate : 58 b/s Count of elements : 988 Stream size : 42.1 KiB (0%) Title : Full Language : Ukrainian Default : No Forced : No Text #3 ID : 6 Format : UTF-8 Codec ID : S_TEXT/UTF8 Codec ID/Info : UTF-8 Plain Text Duration : 1 h 30 min Bit rate : 44 b/s Count of elements : 984 Stream size : 29.4 KiB (0%) Title : Full Language : English Default : No Forced : No Text #4 ID : 7 Format : UTF-8 Codec ID : S_TEXT/UTF8 Codec ID/Info : UTF-8 Plain Text Duration : 1 h 31 min Bit rate : 55 b/s Count of elements : 1274 Stream size : 37.2 KiB (0%) Title : SDH Language : English Default : No Forced : No
[+] Скриншоты
23.04.24 замена укр. звук. дорожки на лучший

Всего файлов в раздаче: 1 
Code 8 Part II (2024) WEB-DL 2160p HDR DV Ukr.Eng [Hurtom].mkv9.17 GB

Похожие раздачи по запросу - Код
2024-05-08 magnet Код Красный / Red Joan (2018) BDRip 720p от msltel | D, P 3.27 GB ↑ 0 ↓ 0
2024-04-23 magnet Код 8: Часть 2 / Code 8: Part II (2024) WEB-DL 2160p | 4K | SDR | D, P, P2, A 14.70 GB ↑ 1 ↓ 0
2024-03-26 magnet Код 8: Часть 2 / Code 8: Part II (2024) WEB-DLRip от MegaPeer | D | TVShows 1.46 GB ↑ 0 ↓ 0
2024-03-10 magnet Код 8: Часть 2 / Code 8: Part II (2024) WEB-DLRip-AVC от DoMiNo & селезень | P, P2 | Red Head Sound, ViruseProject 1.54 GB ↑ 0 ↓ 0
2024-03-09 magnet Код 8: Часть 2 / Code 8: Part II (2024) WEB-DL 1080p от ExKinoRay | P | Red Head Sound 4.11 GB ↑ 6 ↓ 0
2024-03-01 magnet Код 8 / Code 8 (2019) BDRip-AVC от DoMiNo & селезень | iTunes 1.71 GB ↑ 0 ↓ 0
2024-03-01 magnet Код 8: Часть 2 / Code 8: Part II (2024) WEB-DL 1080p | ViruseProject 4.43 GB ↑ 0 ↓ 0

Кто качает (только для создателя раздачи и модераторов):
ПользовательIP:портОтдалПринялОстатокСидируетТоррент клиентОбновился
1 Аноним 58.8.153.159:14726 6.93 MB 935.07 kB 6.88 GB нет -qB4520- 17:14 2024-05-22

Комментарии


Зарегистрируйтесь чтобы добавить комментарий
Торрент клиент
byTorrent - программа для загрузки торрент-файлов.

Скачать byTorrent.exe (1,5 МБ)

Скачать byTorrent.zip (0,6 МБ)

Поддержи torrent.by
российских рублей
(300 российских рублей это 4$)

Обратная связь rss

End game ©