↑↓torrent.by
Поиск
Логин:  Регистрация
Пароль:

Edguy - Tinnitus Sanctus (2008) FLAC

download Скачать торрент-файл   magnet Магнитная ссылка Размер: 510.48 MB Добавлен: 2024-04-25 17:00
Пиры будут получены из сети DHT
Последний сидер был замечен 2024-04-26 16:56
Исполнитель: Edguy Название: Tinnitus Sanctus Издатель: Irond CD 08-1544 Источник: Диск из личной коллекции Год: 2008 Жанр: Power-Metal Страна: Германия Кодек: FLAC Битрейт аудио: Lossless Формат: image+.cue+.log Продолжительность: 00:53:36 Рок-Энциклопедия
[+] Трек-лист01. Ministry Of Saints 02. Sex Fire Religion 03. The Pride Of Creation 04. Nine Lives 05. Wake Up Dreaming Black 06. Dragonfly 07. Thorn Without A Rose 08. 9-2-9 09. Speedhoven 10. Dead Or Rock 11. Aren't You A Little Pervert Too?! (Bonus Track Feat. Granato Rambocco And The Killers)
[+] Отчёт Exact Audio CopyExact Audio Copy V1.6 from 23. October 2020 Отчёт EAC об извлечении, выполненном 21. апреля 2024, 18:10 EDGUY / "Tinnitus Sanctus" Дисковод: SlimtypeeSEU206 2 Adapter: 0 ID: 0 Режим чтения : Скоростной Коррекция смещения при чтении : 6 Способность читать области Lead-in и Lead-out : Нет Заполнение пропущенных сэмплов тишиной : Да Удаление блоков с тишиной в начале и конце : Нет При вычислениях CRC использовались нулевые сэмплы : Да Интерфейс : Установленный внешний ASPI-интерфейс Выходной формат : Пользовательский кодировщик Выбранный битрейт : 1024 kBit/s Качество : Высокий Добавление ID3-тега : Нет Утилита сжатия : C:Program Files (x86)Exact Audio CopyFlacflac.exe Дополнительные параметры : -8 -V -T "TITLE=%title%" -T "ARTIST=%artist%" -T "ALBUMARTIST=%albumartist%" -T "ALBUM=%albumtitle%" -T "DATE=%year%" -T "TRACKNUMBER=%tracknr%" -T "TRACKTOTAL=%numtracks%" -T "GENRE=%genre%" -T "COMMENT=%comment%" -T "PERFORMER=%albuminterpret%" -T "COMPOSER=%composer%" %source% -o %dest% TOC извлечённого CD Трек | Старт | Длительность | Начальный сектор | Конечный сектор --------------------------------------------------------------------- 1 | 0:00.00 | 5:02.63 | 0 | 22712 2 | 5:02.63 | 5:57.34 | 22713 | 49521 3 | 11:00.22 | 5:28.60 | 49522 | 74181 4 | 16:29.07 | 4:26.42 | 74182 | 94173 5 | 20:55.49 | 4:05.73 | 94174 | 112621 6 | 25:01.47 | 4:56.49 | 112622 | 134870 7 | 29:58.21 | 4:46.46 | 134871 | 156366 8 | 34:44.67 | 3:48.07 | 156367 | 173473 9 | 38:32.74 | 7:42.46 | 173474 | 208169 10 | 46:15.45 | 4:59.58 | 208170 | 230652 11 | 51:15.28 | 2:20.27 | 230653 | 241179 Характеристики диапазона извлечения и сообщения об ошибках Выбранный диапазон Имя файла D:RazdachiFilesEdguy Edguy - 2008 - Tinnitus Sanctus EDGUY - ''Tinnitus Sanctus''.wav Пиковый уровень 100.0 % Скорость извлечения 10.5 X CRC теста 1C897843 CRC копии 1C897843 Копирование... OK Ошибок не произошло AccurateRip: сводка Трек 1 : извлечено точно (достоверность 2) (AR v1) Трек 2 : извлечено точно (достоверность 2) (AR v1) Трек 3 : извлечено точно (достоверность 2) (AR v1) Трек 4 : извлечено точно (достоверность 2) (AR v1) Трек 5 : извлечено точно (достоверность 2) (AR v1) Трек 6 : извлечено точно (достоверность 2) (AR v1) Трек 7 : извлечено точно (достоверность 2) (AR v1) Трек 8 : извлечено точно (достоверность 2) (AR v1) Трек 9 : извлечено точно (достоверность 2) (AR v1) Трек 10 : извлечено точно (достоверность 2) (AR v1) Трек 11 : извлечено точно (достоверность 2) (AR v1) Все треки извлечены точно Конец отчёта ---- CUETools DB Plugin V2.1.6 found Submit result: AeaCPy43VKPEwKo0CvoNDo3Dxhg- has been confirmed Track | CTDB Status 1 | (382/384) Accurately ripped 2 | (380/384) Accurately ripped 3 | (382/384) Accurately ripped 4 | ( 6/384) Accurately ripped, or (37/384) differs in 1 samples @00:57:15 5 | ( 44/384) Accurately ripped 6 | ( 44/384) Accurately ripped 7 | ( 44/384) Accurately ripped 8 | ( 44/384) Accurately ripped 9 | ( 44/384) Accurately ripped 10 | ( 44/384) Accurately ripped 11 | ( 44/384) Accurately ripped If you are sure that your rip contains errors, you can use CUETools to repair it. ==== Контрольная сумма отчёта C6B4C582809E283AA6A5CC1294E602F29D0AD10BAF011C8B0D62A403BEAA247E ====
Дополнительная информация: Edguy — немецкая группа, играющая в стиле пауэр-метал. Группа Edguy была основана в 1992 году Тобиасом Замметом, Дирком Зауэром, Йенсом Людвигом и Домиником Шторыхом, которым в то время было по 15 лет. Названием было выбрано прозвище их учителя по математике Эдгара Циммерера, которого называли «Edguy». Время раздачи: В дневное время.

Всего файлов в раздаче: 18 
EDGUY - ''Tinnitus Sanctus''.cue1.69 kB
EDGUY - ''Tinnitus Sanctus''.flac384.16 MB
EDGUY - ''Tinnitus Sanctus''.log8.11 kB
Scans\Scan 01.jpg6.28 MB
Scans\Scan 02.jpg10.31 MB
Scans\Scan 03.jpg8.41 MB
Scans\Scan 04.jpg9.73 MB
Scans\Scan 05.jpg8.41 MB
Scans\Scan 06.jpg11.50 MB
Scans\Scan 07.jpg9.40 MB
Показать все файлы

Похожие раздачи по запросу - Edguy
2024-04-25 magnet Edguy - Hellfire Club (2004) MP3 262.61 MB ↑ 0 ↓ 0
2024-04-25 magnet Edguy - Space Police: Defenders Of The Crown (2014) FLAC 521.38 MB ↑ 0 ↓ 0
2024-04-25 magnet Edguy - Hall Of Flame: The Best And The Rare (2004) MP3 394.73 MB ↑ 0 ↓ 0
2024-04-25 magnet Edguy - Space Police: Defenders Of The Crown (2014) MP3 261.42 MB ↑ 0 ↓ 0
2024-04-25 magnet Edguy - Age Of The Joker (2011) FLAC 536.76 MB ↑ 0 ↓ 0
2024-04-25 magnet Edguy - Rocket Ride (2006) FLAC 571.26 MB ↑ 0 ↓ 0
2024-04-25 magnet Edguy - Rocket Ride (2006) MP3 255.17 MB ↑ 0 ↓ 0

Кто качает (только для создателя раздачи и модераторов): Локальные пиры отсутствуют

Комментарии


Зарегистрируйтесь чтобы добавить комментарий
Торрент клиент
byTorrent - программа для загрузки торрент-файлов.

Скачать byTorrent.exe (1,5 МБ)

Скачать byTorrent.zip (0,6 МБ)

Поддержи torrent.by
российских рублей
(300 российских рублей это 4$)

Обратная связь rss

End game ©