↑↓torrent.by
Поиск
Логин:  Регистрация
Пароль:

Edguy - Space Police: Defenders Of The Crown (2014) FLAC

download Скачать торрент-файл   magnet Магнитная ссылка Размер: 521.38 MB Добавлен: 2024-04-25 17:00
Пиры будут получены из сети DHT
Последний сидер был замечен 2024-04-26 16:56
Исполнитель: Edguy Название: Space Police: Defenders Of The Crown Издатель: Soyuz Music 27361 32822 Источник: Диск из личной коллекции Год: 2014 Жанр: Power-Metal Страна: Германия Кодек: FLAC Битрейт аудио: Lossless Формат: image+.cue+.log Продолжительность: 00:54:29 Рок-Энциклопедия
[+] Трек-лист01. Sabre And Torch 02. Space Police 03. Defenders Of The Crown 04. Love Tyger 05. The Realms Of Baba Yaga 06. Rock Me Amadeus 07. Do Me Like A Caveman 08. Shadow Eaters 09. Alone In Myself 10. The Eternal Wayfarer
[+] Отчёт Exact Audio CopyExact Audio Copy V1.6 from 23. October 2020 Отчёт EAC об извлечении, выполненном 21. апреля 2024, 18:46 EDGUY / "Space Police: Defenders Of The Crown" Дисковод: SlimtypeeSEU206 2 Adapter: 0 ID: 0 Режим чтения : Скоростной Коррекция смещения при чтении : 6 Способность читать области Lead-in и Lead-out : Нет Заполнение пропущенных сэмплов тишиной : Да Удаление блоков с тишиной в начале и конце : Нет При вычислениях CRC использовались нулевые сэмплы : Да Интерфейс : Установленный внешний ASPI-интерфейс Выходной формат : Пользовательский кодировщик Выбранный битрейт : 1024 kBit/s Качество : Высокий Добавление ID3-тега : Нет Утилита сжатия : C:Program Files (x86)Exact Audio CopyFlacflac.exe Дополнительные параметры : -8 -V -T "TITLE=%title%" -T "ARTIST=%artist%" -T "ALBUMARTIST=%albumartist%" -T "ALBUM=%albumtitle%" -T "DATE=%year%" -T "TRACKNUMBER=%tracknr%" -T "TRACKTOTAL=%numtracks%" -T "GENRE=%genre%" -T "COMMENT=%comment%" -T "PERFORMER=%albuminterpret%" -T "COMPOSER=%composer%" %source% -o %dest% TOC извлечённого CD Трек | Старт | Длительность | Начальный сектор | Конечный сектор --------------------------------------------------------------------- 1 | 0:00.00 | 5:02.29 | 0 | 22678 2 | 5:02.29 | 6:02.18 | 22679 | 49846 3 | 11:04.47 | 5:40.68 | 49847 | 75414 4 | 16:45.40 | 4:26.19 | 75415 | 95383 5 | 21:11.59 | 6:09.10 | 95384 | 123068 6 | 27:20.69 | 3:21.44 | 123069 | 138187 7 | 30:42.38 | 4:09.17 | 138188 | 156879 8 | 34:51.55 | 6:11.10 | 156880 | 184714 9 | 41:02.65 | 4:36.08 | 184715 | 205422 10 | 45:38.73 | 8:50.11 | 205423 | 245183 Характеристики диапазона извлечения и сообщения об ошибках Выбранный диапазон Имя файла D:RazdachiFilesEdguy Edguy - 2014 - Space Police - Defenders Of The Crown EDGUY - ''Space Police- Defenders Of The Crown''.wav Пиковый уровень 98.8 % Скорость извлечения 10.2 X CRC теста 3211C53B CRC копии 3211C53B Копирование... OK Ошибок не произошло AccurateRip: сводка Трек 1 : извлечено точно (достоверность 2) (AR v2) Трек 2 : извлечено точно (достоверность 2) (AR v2) Трек 3 : извлечено точно (достоверность 2) (AR v2) Трек 4 : извлечено точно (достоверность 2) (AR v2) Трек 5 : извлечено точно (достоверность 2) (AR v2) Трек 6 : извлечено точно (достоверность 2) (AR v2) Трек 7 : извлечено точно (достоверность 2) (AR v2) Трек 8 : извлечено точно (достоверность 2) (AR v2) Трек 9 : извлечено точно (достоверность 2) (AR v2) Трек 10 : извлечено точно (достоверность 2) (AR v2) Все треки извлечены точно Конец отчёта ---- CUETools DB Plugin V2.1.6 found Submit result: m1pwDfg.beyYAD0VhZsvSdw0igE- has been confirmed Track | CTDB Status 1 | (479/483) Accurately ripped 2 | (481/483) Accurately ripped 3 | (481/483) Accurately ripped 4 | (479/483) Accurately ripped 5 | (479/483) Accurately ripped 6 | (481/483) Accurately ripped 7 | (477/483) Accurately ripped 8 | (478/483) Accurately ripped 9 | (481/483) Accurately ripped 10 | (480/483) Accurately ripped ==== Контрольная сумма отчёта 2D23389074A24AEDE41099CFE4533D7A61298909F007FD2DEDCBCBA70E8EE532 ====
Дополнительная информация: Edguy — немецкая группа, играющая в стиле пауэр-метал. Группа Edguy была основана в 1992 году Тобиасом Замметом, Дирком Зауэром, Йенсом Людвигом и Домиником Шторыхом, которым в то время было по 15 лет. Названием было выбрано прозвище их учителя по математике Эдгара Циммерера, которого называли «Edguy». Время раздачи: В дневное время.

Всего файлов в раздаче: 18 
EDGUY - ''Space Police- Defenders Of The Crown''.cue1.55 kB
EDGUY - ''Space Police- Defenders Of The Crown''.flac385.01 MB
EDGUY - ''Space Police- Defenders Of The Crown''.log7.63 kB
Scans\Scan 01.jpg5.72 MB
Scans\Scan 02.jpg9.99 MB
Scans\Scan 03.jpg10.75 MB
Scans\Scan 04.jpg11.31 MB
Scans\Scan 05.jpg10.03 MB
Scans\Scan 06.jpg10.34 MB
Scans\Scan 07.jpg11.26 MB
Показать все файлы

Похожие раздачи по запросу - Edguy
2024-04-25 magnet Edguy - Hellfire Club (2004) MP3 262.61 MB ↑ 0 ↓ 0
2024-04-25 magnet Edguy - Hall Of Flame: The Best And The Rare (2004) MP3 394.73 MB ↑ 0 ↓ 0
2024-04-25 magnet Edguy - Space Police: Defenders Of The Crown (2014) MP3 261.42 MB ↑ 0 ↓ 0
2024-04-25 magnet Edguy - Age Of The Joker (2011) FLAC 536.76 MB ↑ 0 ↓ 0
2024-04-25 magnet Edguy - Rocket Ride (2006) FLAC 571.26 MB ↑ 0 ↓ 0
2024-04-25 magnet Edguy - Tinnitus Sanctus (2008) FLAC 510.48 MB ↑ 0 ↓ 0
2024-04-25 magnet Edguy - Rocket Ride (2006) MP3 255.17 MB ↑ 0 ↓ 0

Комментарии


Зарегистрируйтесь чтобы добавить комментарий
Торрент клиент
byTorrent - программа для загрузки торрент-файлов.

Скачать byTorrent.exe (1,5 МБ)

Скачать byTorrent.zip (0,6 МБ)

Поддержи torrent.by
российских рублей
(300 российских рублей это 4$)

Обратная связь rss

End game ©