↑↓torrent.by
Поиск
Логин:  Регистрация
Пароль:

Katia Labèque - Glass: Cocteau Trilogy [24-bit Hi-Res] (2024) FLAC

download Скачать торрент-файл   magnet Магнитная ссылка Размер: 865.75 MB Добавлен: 2024-04-26 05:00
Пиры будут получены из сети DHT
Последний сидер был замечен 2024-04-26 16:56
Название: Glass: Cocteau Trilogy Исполнитель: Katia Labèque Год: 2024 Жанр: Classical Издатель (лейбл): Universal Music Division Decca Records France Продолжительность: 01:38:36 Формат/Кодек: FLAC Тип рипа: Tracks + booklet Битрейт аудио: Lossless Разрядность: 24 Bit/48 kHz
[+] Трек-лист 01. Orphée - Arr. For Piano Duet / Act 1: I. Le Café (00:03:41) 02. Orphée - Arr. For Piano Duet / Act 1: Ii. La Route (00:01:26) 03. Orphée - Arr. For Piano Duet / Act 1: Iii. La Chambre D'orphée (00:01:59) 04. Orphée - Arr. For Piano Duet / Act 2: Iv. Chez Orphée (00:02:11) 05. Orphée - Arr. For Piano Duet / Act 2: V. Le Voyage Aux Enfers (00:01:58) 06. Orphée - Arr. For Piano Duet / Act 2: Vi. Orphée Et La Princesse (00:03:27) 07. Orphée - Arr. For Piano Duet / Act 2: Vii. Interlude Musical - Le Retour Chez Orphée (00:01:44) 08. Orphée - Arr. For Piano Duet / Act 2: Viii. Le Studio D'orphée (00:03:22) 09. Orphée - Arr. For Piano Duet / Act 2: Ix. Le Retour D'orphée (00:02:53) 10. Orphée - Arr. For Piano Duet / Act 2: X. La Chambre D'orphée (00:04:33) 11. La Belle Et La Bête - Arr. For Piano Duet: I. Ouverture (00:01:12) 12. La Belle Et La Bête - Arr. For Piano Duet: Ii. Les Soeurs (00:01:22) 13. La Belle Et La Bête - Arr. For Piano Duet: Iii. Le Dîner (00:03:09) 14. La Belle Et La Bête - Arr. For Piano Duet: Iv. Promenade Dans Le Jardin (00:07:38) 15. La Belle Et La Bête - Arr. For Piano Duet: V. La Saisie Des Meubles (00:01:16) 16. La Belle Et La Bête - Arr. For Piano Duet: Vi. La Confiance De La Bête (00:04:21) 17. La Belle Et La Bête - Arr. For Piano Duet: Vii. Le Miroir (00:03:34) 18. La Belle Et La Bête - Arr. For Piano Duet: Viii. Le Pavillon (00:02:07) 19. La Belle Et La Bête - Arr. For Piano Duet: Ix. La Métamorphose (00:03:13) 20. Les Enfants Terribles - Arr. For Piano Duet: I. Overture (00:03:02) 21. Les Enfants Terribles - Arr. For Piano Duet: Ii. Paul Is Dying (00:04:57) 22. Les Enfants Terribles - Arr. For Piano Duet: Iii. The Somnambulist (00:03:51) 23. Les Enfants Terribles - Arr. For Piano Duet: Iv. She Slapped Me (00:03:51) 24. Les Enfants Terribles - Arr. For Piano Duet: V. They Lived Their Dream (00:02:16) 25. Les Enfants Terribles - Arr. For Piano Duet: Vi. Terrible Interlude (00:08:14) 26. Les Enfants Terribles - Arr. For Piano Duet: Vii. Cocoon Of Shawls (00:03:36) 27. Les Enfants Terribles - Arr. For Piano Duet: Viii. Lost (00:05:12) 28. Les Enfants Terribles - Arr. For Piano Duet: Ix. Are You In Love, Agathe? (00:03:15) 29. Les Enfants Terribles - Arr. For Piano Duet: X. She Took The Path (00:01:57) 30. Les Enfants Terribles - Arr. For Piano Duet: Xi. Paul’s End (00:03:19)
[+] DRM foobar2000 1.5.5 / Замер динамического диапазона (DR) 1.1.1 ------------------------------------------------------------------------------- Анализ: Katia Labèque / Glass: Cocteau Trilogy -------------------------------------------------------------------------------- DR Пики RMS Продолжительность трека -------------------------------------------------------------------------------- DR11 -0.32 дБ -14.99 дБ 3:41 01-Orphée - Arr. For Piano Duet / Act 1: I. Le Café DR11 -7.39 дБ -21.78 дБ 1:26 02-Orphée - Arr. For Piano Duet / Act 1: Ii. La Route DR13 -10.96 дБ -29.21 дБ 1:59 03-Orphée - Arr. For Piano Duet / Act 1: Iii. La Chambre D'orphée DR8 -0.31 дБ -13.43 дБ 2:11 04-Orphée - Arr. For Piano Duet / Act 2: Iv. Chez Orphée DR12 -0.32 дБ -14.16 дБ 1:58 05-Orphée - Arr. For Piano Duet / Act 2: V. Le Voyage Aux Enfers DR13 -0.49 дБ -21.86 дБ 3:27 06-Orphée - Arr. For Piano Duet / Act 2: Vi. Orphée Et La Princesse DR11 -3.08 дБ -19.47 дБ 1:44 07-Orphée - Arr. For Piano Duet / Act 2: Vii. Interlude Musical - Le Retour Chez Orphée DR9 -0.32 дБ -13.94 дБ 3:22 08-Orphée - Arr. For Piano Duet / Act 2: Viii. Le Studio D'orphée DR13 -2.07 дБ -20.80 дБ 2:53 09-Orphée - Arr. For Piano Duet / Act 2: Ix. Le Retour D'orphée DR14 -6.05 дБ -25.78 дБ 4:33 10-Orphée - Arr. For Piano Duet / Act 2: X. La Chambre D'orphée DR9 -0.32 дБ -13.29 дБ 1:12 11-La Belle Et La Bête - Arr. For Piano Duet: I. Ouverture DR12 -3.73 дБ -20.13 дБ 1:22 12-La Belle Et La Bête - Arr. For Piano Duet: Ii. Les Soeurs DR16 -0.32 дБ -20.98 дБ 3:09 13-La Belle Et La Bête - Arr. For Piano Duet: Iii. Le Dîner DR11 -0.32 дБ -17.50 дБ 7:38 14-La Belle Et La Bête - Arr. For Piano Duet: Iv. Promenade Dans Le Jardin DR12 -12.71 дБ -28.26 дБ 1:16 15-La Belle Et La Bête - Arr. For Piano Duet: V. La Saisie Des Meubles DR14 -2.45 дБ -22.33 дБ 4:21 16-La Belle Et La Bête - Arr. For Piano Duet: Vi. La Confiance De La Bête DR9 -0.32 дБ -14.72 дБ 3:34 17-La Belle Et La Bête - Arr. For Piano Duet: Vii. Le Miroir DR10 -0.32 дБ -16.17 дБ 2:07 18-La Belle Et La Bête - Arr. For Piano Duet: Viii. Le Pavillon DR9 -0.31 дБ -14.16 дБ 3:13 19-La Belle Et La Bête - Arr. For Piano Duet: Ix. La Métamorphose DR10 -0.32 дБ -13.53 дБ 3:02 20-Les Enfants Terribles - Arr. For Piano Duet: I. Overture DR13 -0.32 дБ -18.62 дБ 4:57 21-Les Enfants Terribles - Arr. For Piano Duet: Ii. Paul Is Dying DR13 -12.17 дБ -28.77 дБ 3:51 22-Les Enfants Terribles - Arr. For Piano Duet: Iii. The Somnambulist DR12 -1.38 дБ -19.33 дБ 3:51 23-Les Enfants Terribles - Arr. For Piano Duet: Iv. She Slapped Me DR12 -0.32 дБ -17.45 дБ 2:16 24-Les Enfants Terribles - Arr. For Piano Duet: V. They Lived Their Dream DR15 -8.36 дБ -29.01 дБ 8:14 25-Les Enfants Terribles - Arr. For Piano Duet: Vi. Terrible Interlude DR12 -5.84 дБ -20.84 дБ 3:36 26-Les Enfants Terribles - Arr. For Piano Duet: Vii. Cocoon Of Shawls DR14 -2.63 дБ -23.01 дБ 5:12 27-Les Enfants Terribles - Arr. For Piano Duet: Viii. Lost DR9 -0.32 дБ -14.32 дБ 3:15 28-Les Enfants Terribles - Arr. For Piano Duet: Ix. Are You In Love, Agathe? DR10 -0.33 дБ -11.97 дБ 1:57 29-Les Enfants Terribles - Arr. For Piano Duet: X. She Took The Path DR10 -0.32 дБ -13.60 дБ 3:19 30-Les Enfants Terribles - Arr. For Piano Duet: Xi. Paul’s End -------------------------------------------------------------------------------- Количество треков: 30 Реальные значения DR: DR12 Частота: 48000 Гц Каналов: 2 Разрядность: 24 Битрейт: 1345 кбит/с Кодек: FLAC ================================================================================
Время раздачи: 24/7 (минимум до появления первых 3-5 скачавших, на раздачи не возвращаюсь) Первое правило участника файлообмена: "Скачал сам - дай скачать другому!"

Всего файлов в раздаче: 32 
01. Orphée - Arr. For Piano Duet Act 1 I. Le Café.flac34.95 MB
02. Orphée - Arr. For Piano Duet Act 1 Ii. La Route.flac12.36 MB
03. Orphée - Arr. For Piano Duet Act 1 Iii. La Chambre D'orphée.flac15.81 MB
04. Orphée - Arr. For Piano Duet Act 2 Iv. Chez Orphée.flac20.03 MB
05. Orphée - Arr. For Piano Duet Act 2 V. Le Voyage Aux Enfers.flac18.50 MB
06. Orphée - Arr. For Piano Duet Act 2 Vi. Orphée Et La Princesse.flac29.59 MB
07. Orphée - Arr. For Piano Duet Act 2 Vii. Interlude Musical - Le Retour Chez Orphée.flac15.14 MB
08. Orphée - Arr. For Piano Duet Act 2 Viii. Le Studio D'orphée.flac30.91 MB
09. Orphée - Arr. For Piano Duet Act 2 Ix. Le Retour D'orphée.flac24.79 MB
10. Orphée - Arr. For Piano Duet Act 2 X. La Chambre D'orphée.flac36.39 MB
Показать все файлы

Комментарии


Зарегистрируйтесь чтобы добавить комментарий
Торрент клиент
byTorrent - программа для загрузки торрент-файлов.

Скачать byTorrent.exe (1,5 МБ)

Скачать byTorrent.zip (0,6 МБ)

Поддержи torrent.by
российских рублей
(300 российских рублей это 4$)

Обратная связь rss

End game ©