↑↓torrent.by
Поиск
Логин:  Регистрация
Пароль:

Засада / Ambush (2023) BDRip 720p от ELEKTRI4KA | P

download Скачать торрент-файл   magnet Магнитная ссылка Размер: 4.80 GB Раздают: 1 Качают: 0 Добавлен: 2024-04-26 05:00
Пиры будут получены из сети DHT
Последний сидер был замечен сегодня в 01:10
«Во время вьетнамской войны американские солдаты попадают в смертельный лабиринт. Военный триллер с Аароном Экхартом» Информация о фильме Название: Засада Оригинальное название: Ambush Год выхода: 2023 Жанр: боевик, триллер Режиссер: Марк Бурман В ролях: Джонатан Риз Майерс, Аарон Экхарт, Коннор Паоло, Джейсон Дженао, Мак Брандт, Мара Лейн, Джордан Джонсон-Хиндс, Патрик Уокер, Грегори Симс, Francis Mancho О фильме: В самый разгар войны во Вьетнаме с американской базы пропадает папка с именами всех разведчиков, сотрудничающих с США. Опытному военному офицеру Акерману поручают любой ценой найти секретный документ — на это у него и его отряда из самых подготовленных бойцов есть только два часа. Двигаясь к месту назначения, солдаты попадают в многокилометровый подземный лабиринт, за каждым поворотом которого таятся смертельные ловушки. Сможет ли хоть один из них найти выход? Выпущено: США / ADME, BondIt, Buffalo 8 Productions, BurningBull SPFX Продолжительность: 01:44:19 Озвучивание #1: Профессиональное (многоголосое) | Кипарис Озвучивание #2: Профессиональное (многоголосое) | TVShows Файл Формат: MKV Качество: BDRip 720p Видео: MPEG-4 AVC, 5112 Kb/s, 1280x536 Аудио #1: Russian: AC3, 640 Kb/s (6 ch) | MVO | Кипарис Аудио #2: Russian: AC3, 192 Kb/s (2 ch) | MVO | TVShows Аудио #3: English: AC3, 640 Kb/s (6 ch) | Original Субтитры: English Дополнительно: Сохранены оригинальные чаптеры. Релиз группы:  | Мы в Telegram:
[+] Инфо-файл:Complete name: Zasada.2023.BDRip.720p.ELEKTRI4KA.mkv Format: Matroska Format version: Version 4 File size: 4.80 GiB Duration: 1 h 44 min Overall bit rate: 6 585 kb/s Movie name: Zasada.2023.BDRip.720p.ELEKTRI4KA. Encoded date: UTC 2024-04-25 17:42:43 Writing application: mkvmerge v8.3.0 ('Over the Horizon') 64bit Writing library: libebml v1.3.1 + libmatroska v1.4.2 Video ID: 1 Format: AVC Format/Info: Advanced Video Codec Format profile: High@L4.1 Format settings: CABAC / 12 Ref Frames Format settings, CABAC: Yes Format settings, RefFrames: 12 frames Codec ID: V_MPEG4/ISO/AVC Duration: 1 h 44 min Bit rate: 5 112 kb/s Width: 1 280 pixels Height: 536 pixels Display aspect ratio: 2.40:1 Frame rate mode: Constant Frame rate: 23.976 (24000/1001) FPS Color space: YUV Chroma subsampling: 4:2:0 Bit depth: 8 bits Scan type: Progressive Bits/(Pixel*Frame): 0.311 Stream size: 3.72 GiB (78%) Writing library: x264 core 157 r2958 57baac4 Encoding settings: cabac=1 / ref=12 / deblock=1:-3:-3 / analyse=0x3:0x133 / me=umh / subme=10 / psy=1 / psy_rd=1.00:0.00 / mixed_ref=1 / me_range=32 / chroma_me=1 / trellis=2 / 8x8dct=1 / cqm=0 / deadzone=21, 11 / fast_pskip=0 / chroma_qp_offset=-2 / threads=49 / lookahead_threads=4 / sliced_threads=0 / nr=0 / decimate=0 / interlaced=0 / bluray_compat=0 / constrained_intra=0 / bframes=11 / b_pyramid=2 / b_adapt=2 / b_bias=0 / direct=3 / weightb=1 / open_gop=0 / weightp=2 / keyint=240 / keyint_min=24 / scenecut=40 / intra_refresh=0 / rc=2pass / mbtree=0 / bitrate=5112 / ratetol=1.0 / qcomp=0.60 / qpmin=0 / qpmax=69 / qpstep=4 / cplxblur=20.0 / qblur=0.5 / ip_ratio=1.40 / pb_ratio=1.30 / aq=1:1.00 Default: Yes Forced: No Audio #1 ID: 2 Format: AC-3 Format/Info: Audio Coding 3 Commercial name: Dolby Digital Codec ID: A_AC3 Duration: 1 h 44 min Bit rate mode: Constant Bit rate: 640 kb/s Channel(s): 6 channels Channel layout: L R C LFE Ls Rs Sampling rate: 48.0 kHz Frame rate: 31.250 FPS (1536 SPF) Bit depth: 16 bits Compression mode: Lossy Stream size: 478 MiB (10%) Title: MVO (Kiparis) Language: Russian Service kind: Complete Main Default: Yes Forced: Yes Audio #2 ID: 3 Format: AC-3 Format/Info: Audio Coding 3 Commercial name: Dolby Digital Codec ID: A_AC3 Duration: 1 h 44 min Bit rate mode: Constant Bit rate: 192 kb/s Channel(s): 2 channels Channel layout: L R Sampling rate: 48.0 kHz Frame rate: 31.250 FPS (1536 SPF) Bit depth: 16 bits Compression mode: Lossy Stream size: 143 MiB (3%) Title: MVO (TVShows) Language: Russian Service kind: Complete Main Default: No Forced: No Audio #3 ID: 4 Format: AC-3 Format/Info: Audio Coding 3 Commercial name: Dolby Digital Codec ID: A_AC3 Duration: 1 h 44 min Bit rate mode: Constant Bit rate: 640 kb/s Channel(s): 6 channels Channel layout: L R C LFE Ls Rs Sampling rate: 48.0 kHz Frame rate: 31.250 FPS (1536 SPF) Bit depth: 16 bits Compression mode: Lossy Stream size: 478 MiB (10%) Title: Original Language: English Service kind: Complete Main Default: No Forced: No Text #1 ID: 5 Format: UTF-8 Codec ID: S_TEXT/UTF8 Codec ID/Info: UTF-8 Plain Text Duration: 1 h 32 min Bit rate: 47 b/s Count of elements: 1194 Stream size: 32.5 KiB (0%) Language: English Default: No Forced: No Text #2 ID: 6 Format: UTF-8 Codec ID: S_TEXT/UTF8 Codec ID/Info: UTF-8 Plain Text Duration: 1 h 33 min Bit rate: 56 b/s Count of elements: 1424 Stream size: 38.8 KiB (0%) Title: SDH Language: English Default: No Forced: No Menu 00:00:00.000: :Chapter 01 00:08:26.965: :Chapter 02 00:16:48.299: :Chapter 03 00:27:00.035: :Chapter 04 00:36:42.117: :Chapter 05 00:46:14.021: :Chapter 06 00:55:35.415: :Chapter 07 01:04:35.789: :Chapter 08 01:14:34.762: :Chapter 09 01:21:52.991: :Chapter 10 01:30:31.593: :Chapter 11 01:35:52.956: :Chapter 12
[+] Скриншоты

Всего файлов в раздаче: 1 
Zasada.2023.BDRip.720p.ELEKTRI4KA.mkv4.80 GB

Похожие раздачи по запросу - Засада
2024-04-26 magnet Засада / Ambush (2023) BDRip-AVC от DoMiNo & селезень | P 1.88 GB ↑ 0 ↓ 0
2024-04-26 magnet Засада / Ambush (2023) BDRemux 1080p от ELEKTRI4KA | P 22.92 GB ↑ 0 ↓ 0
2024-04-26 magnet Засада / Ambush (2023) BDRip от ELEKTRI4KA | P 1.47 GB ↑ 0 ↓ 0
2024-04-26 magnet Засада / Ambush (2023) BDRip 1080p от ELEKTRI4KA | P 9.45 GB ↑ 0 ↓ 0

Комментарии


Зарегистрируйтесь чтобы добавить комментарий
Торрент клиент
byTorrent - программа для загрузки торрент-файлов.

Скачать byTorrent.exe (1,5 МБ)

Скачать byTorrent.zip (0,6 МБ)

Поддержи torrent.by
российских рублей
(300 российских рублей это 4$)

Обратная связь rss

End game ©