↑↓torrent.by
Поиск
Логин:  Регистрация
Пароль:

Всё ОК [S01] (2024) WEBRip-AVC от Generalfilm | КПК

download Скачать торрент-файл   magnet Магнитная ссылка Размер: 1.32 GB Добавлен: 2024-04-26 05:00
Пиры будут получены из сети DHT
Последний сидер был замечен вчера в 18:48
Информация о фильме Оригинальное название: Всё ОК Год выпуска: 2024 Жанр: Драма, комедия Режиссёр: Андрей Элинсон В ролях: Фёдор Федотов (II), Анна Осипова (III), Алиса Руденко, Софья Гершевич, Анна Слю, Евгения Добровольская, Алёна Апина, Владислав Ценёв, Давид Манукян, Вероника Вострикова О сериале: Петербургский гид-переводчик Илья привык прятать чувства за цитатами и остротами и открывать душу только воображаемым персонажам из мира музеев. Всё меняется, когда после смерти матери ему приходится взять на себя заботу о младших сёстрах. И теперь интроверту, привыкшему к холостяцкой жизни, придётся пересмотреть свои отношения с окружающим миром, вновь пережить детские обиды, влюбиться и наконец повзрослеть. Страна: Россия Студия: Кинокомпания "Институт развития интернета", "НМГ Студия", "Продакшн 360", "Видеопрокат" Продолжительность: 13 x ~ 00:23:00 Перевод: Не требуется Файл Формат: MP4 Качество: WEBRip-AVC Видео: MPEG-4 AVC (x264), 640x360, ~ 500 kbps, 25.000 fps Аудио: AAC LC, 48.0 KHz, 2 ch, 128 Kbps Субтитры: Нет
[+] Скриншоты
[+] MIComplete name : D:киноVsyo.OK.S01.2024.WEBRip-AVC.KPK.GFVsyo.OK.s01e02.2024.WEBRip-AVC.KPK.GF.mp4 Format : MPEG-4 Codec ID : M4V (isom/iso2/avc1) File size : 107 MiB Duration : 23mn 29s Overall bit rate mode : Variable Overall bit rate : 634 Kbps Writing application : Lavf53.19.0 Video ID : 1 Format : AVC Format/Info : Advanced Video Codec Format profile : High@L4.1 Format settings, CABAC : Yes Format settings, ReFrames : 8 frames Codec ID : avc1 Codec ID/Info : Advanced Video Coding Duration : 23mn 29s Bit rate : 500 Kbps Width : 640 pixels Height : 360 pixels Display aspect ratio : 16:9 Frame rate mode : Constant Frame rate : 25.000 fps Color space : YUV Chroma subsampling : 4:2:0 Bit depth : 8 bits Scan type : Progressive Bits/(Pixel*Frame) : 0.087 Stream size : 84.0 MiB (79%) Writing library : x264 core 146 r2538 121396c Encoding settings : cabac=1 / ref=8 / deblock=1:-1:-1 / analyse=0x3:0x133 / me=umh / subme=10 / psy=1 / psy_rd=1.00:0.00 / mixed_ref=1 / me_range=24 / chroma_me=1 / trellis=2 / 8x8dct=1 / cqm=0 / deadzone=21,11 / fast_pskip=1 / chroma_qp_offset=-2 / threads=3 / lookahead_threads=1 / sliced_threads=0 / nr=0 / decimate=1 / interlaced=0 / bluray_compat=0 / constrained_intra=0 / bframes=8 / b_pyramid=2 / b_adapt=2 / b_bias=0 / direct=3 / weightb=1 / open_gop=0 / weightp=2 / keyint=250 / keyint_min=126 / scenecut=40 / intra_refresh=0 / rc_lookahead=40 / rc=2pass / mbtree=1 / bitrate=500 / ratetol=1.0 / qcomp=0.60 / qpmin=0 / qpmax=69 / qpstep=4 / cplxblur=20.0 / qblur=0.5 / ip_ratio=1.40 / aq=1:1.00 Menus : 3 Audio ID : 2 Format : AAC Format/Info : Advanced Audio Codec Format profile : LC Codec ID : 40 Duration : 23mn 29s Bit rate mode : Variable Bit rate : 128 Kbps Channel(s) : 2 channels Channel positions : Front: L R Sampling rate : 48.0 KHz Frame rate : 46.875 fps (1024 spf) Compression mode : Lossy Stream size : 21.5 MiB (20%) Default : Yes Alternate group : 1 Menus : 3
Релиз от:

Всего файлов в раздаче: 13 
Vsyo.OK.s01e01.2024.WEBRip-AVC.KPK.GF.mp4108.20 MB
Vsyo.OK.s01e02.2024.WEBRip-AVC.KPK.GF.mp4106.55 MB
Vsyo.OK.s01e03.2024.WEBRip-AVC.KPK.GF.mp499.84 MB
Vsyo.OK.s01e04.2024.WEBRip-AVC.KPK.GF.mp4103.29 MB
Vsyo.OK.s01e05.2024.WEBRip-AVC.KPK.GF.mp4107.11 MB
Vsyo.OK.s01e06.2024.WEBRip-AVC.KPK.GF.mp499.98 MB
Vsyo.OK.s01e07.2024.WEBRip-AVC.KPK.GF.mp4100.19 MB
Vsyo.OK.s01e08.2024.WEBRip-AVC.KPK.GF.mp499.85 MB
Vsyo.OK.s01e09.2024.WEBRip-AVC.KPK.GF.mp4102.75 MB
Vsyo.OK.s01e10.2024.WEBRip-AVC.KPK.GF.mp4100.01 MB
Показать все файлы

Похожие раздачи по запросу - Всё
2024-05-17 magnet Все любят Жанну / Tout le monde aime Jeanne / Everybody Loves Jeanne (2022) BDRip 720p от DoMiNo & селезень | D 3.84 GB ↑ 0 ↓ 0
2024-04-26 magnet Леонид Агутин - Всё не зря (2024) FLAC 356.37 MB ↑ 0 ↓ 0
2024-04-26 magnet Всё ОК [S01] (2024) WEBRip 1080p 8.68 GB ↑ 0 ↓ 0
2024-04-26 magnet Всё ОК [S01] (2024) WEBRip 3.85 GB ↑ 0 ↓ 0
2024-04-24 magnet Всё ОК [S01] (2024) WEBRip-AVC от Files-x 3.73 GB ↑ 0 ↓ 0
2024-04-24 magnet Всё ОК [S01] (2024) WEBRip 720p от ExKinoRay 5.55 GB ↑ 0 ↓ 0
2024-04-21 magnet Детектив на все руки. Задача со звёздочкой [S03] (2023) WEB-DLRip от Generalfilm | КПК 681.49 MB ↑ 0 ↓ 0

Комментарии


Зарегистрируйтесь чтобы добавить комментарий
Торрент клиент
byTorrent - программа для загрузки торрент-файлов.

Скачать byTorrent.exe (1,5 МБ)

Скачать byTorrent.zip (0,6 МБ)

Поддержи torrent.by
российских рублей
(300 российских рублей это 4$)

Обратная связь rss

End game ©